вход на сайт

Имя пользователя :
Пароль :

Восстановление пароля Регистрация
Адъютант его превосходительства (5 частей из 5) (Евгений Ташков, мелодрама, приключения, военный, 1969) [DVDRip, Не требуется]
Рейтинг:
(голосов: 1)



[img]{THEME}/images/logopost.png[/img]




Адъютант его превосходительства (5 частей из 5)

Год выпуска: 1969
Страна: СССР
Производство: Мосфильм, Телефильм
Жанр: мелодрама, приключения, военный

Режиссёр: Евгений Ташков
В ролях: Юрий Соломин, Владимир Козел, Татьяна Иваницкая, Владислав Стржельчик, Евгений Шутов, Александр Милокостый, Николай Тимофеев, Андрей Петров, Анатолий Папанов, Виктор Павлов

Перевод: Не требуется
Субтитры: Отсутствуют

Описание:
О судьбе красного разведчика Кольцова, который в 1919 году был направлен со спецзаданием в штаб деникинской армии, где стал адъютантом командующего.

Основанный на реальных событиях, фильм не только рассказывает о блестяще проведенных Кольцовым операциях, но и раскрывает сложный внутренний мир героев, живших в противоречивое, трагическое время.


Дополнительно:
MediaInfo ▼Text
"1 часть" ▼Общее
Полное имя :J:1. РАЗДАЧААдъютант его превосходительстваАдъютант его превосходительства.DVDRip1_Ad`utant_DVDRip.avi
Формат :AVI
Размер :859 MiB
Продолжительность :01:11:16.040
Общий поток :1 685 Kbps
Программа кодирования :VirtualDubModRus 1.5.10.2 (build 2542/release)
Библиотека кодирования :VirtualDubMod build 2542/release

Видео
Идентификатор :0
Формат :MPEG-4 Visual
Параметр BVOP формата :1
Параметр Qpel формата :No
Параметр GMC формата :0
Параметр Matrix формата :Default (H.263)
Идентификатор кодека :DX50
Продолжительность :1h 11mn 16s 40ms
Битрейт :1 547 Kbps
Ширина :688 pixels
Высота :512 pixels
Соотношение сторон :1.344
Частота кадров :25.000 fps
Глубина цвета :8 bits
Подвыборка цветности :4:2:0
Цветовое пространство :YUV
Тип развертки :Progressive
Бит/(Пиксели*Кадры) :0.176
Размер потока :789 MiB (92%)
Библиотека кодирования :DivX503b2676p

Аудио #1
Идентификатор :1
Формат :MPEG Audio
Идентификатор кодека :55
Продолжительность :01:11:16.032
Вид битрейта :Constant
Битрейт :128 Kbps
Канал(ы) :2 channels
Частота :48.0 KHz
Метод сжатия :Lossy
Размер потока :65.2 MiB (8%)

"2 часть" ▼Общее
Полное имя
0ec72b89c21849845f342953bf0e85438eb1c077Адъютант его превосходительства (5 частей из 5) (Евгений Ташков, мелодрама, приключения, военный, 1969) [DVDRip, Не требуется] Адъютант его превосходительства (5 частей из 5) (Евгений Ташков, мелодрама, приключения, военный, 1969) [DVDRip, Не требуется] " />

Аплоадер: Админ, дата: 11-12-2012, 18:46, торрент скачан: 359 раз

Понравилась раздача? Посмотрите эти:
  • Журавушка (Николай Москаленко, драма, мелодрама, 1968) [DVDRip, Не требуетс ...
  • Дни хирурга Мишкина (3 части из 3) (Вадим Зобин, драма, 1967) [DVDRip, Не т ...
  • Конец операции «Резидент» (2 части из 2) (Вениамин Дорман, боевик, приключе ...
  • Старая крепость (7 частей из 7) (Михаил Беликов, Александр Муратов, приключ ...
  • Путь в "Сатурн" (Виллен Азаров, военный, 1967) [DVDRip, Не требуется]
  • Конец "Сатурна" (Виллен Азаров, Мосфильм, 1967) [DVDRip, Не требуется]
  • Бой после победы (2 части из 2) (Виллен Азаров, триллер, военный, 1972) [DV ...
  • Балтийское небо (2 части из 2) (Владимир Венгеров, драма, военный, история, ...
  • Живые и мертвые (2 части из 2) (Александр Столпер, драма, военный, 1963) [D ...
  • Объяснение в любви (2 части из 2) (Илья Авербах, мелодрама, 1977) [DVDRip, ...
  • Челюскинцы (2 части из 2) (Михаил Ершов, приключения, 1984) [TVRip, Не треб ...
  • Степь (2 части из 2) (Сергей Бондарчук, драма, история, 1977) [DVDRip, Не т ...
  • Сибириада (4 части из 4) (Андрей Кончаловский, драма, военный, история, 197 ...
  • Тихий Дон (3 части из 3) (Сергей Герасимов, драма, военный, 1957) [DVDRip, ...
  • Подпольный обком действует (4 части из 4) (Анатолий Буковский, военный, 197 ...
  • В лесах под Ковелем (3 части из 3) (Юрий Тупицкий, военный, история, 1984) ...
  • Адьютант его превосходительства / Адьютант его превосходительства (Евгений ...
  • Адъютант его превосходительства [Серии с 1 по 5 из (5)] (Евгений Ташков, ме ...
  • Моонзунд (2 части из 2) (Александр Муратов, драма, мелодрама, военный, исто ...
  • К Черному морю (Андрей Тутышкин, мелодрама, комедия, 1957) [DVDRip, Не треб ...
  • Информация
    Посетители, находящиеся в группе Гости, не могут оставлять комментарии к данной публикации.