вход на сайт

Имя пользователя :
Пароль :

Восстановление пароля Регистрация
Челюскинцы (2 части из 2) (Михаил Ершов, приключения, 1984) [TVRip, Не требуется]
Рейтинг:
(голосов: 1)



[img]{THEME}/images/logopost.png[/img]



Челюскинцы (2 части из 2)

Год выпуска: 1984
Страна: СССР
Производство: Ленфильм
Жанр: приключения

Режиссёр: Михаил Ершов
В ролях: Александр Лазарев, Пётр Вельяминов, Игорь Комаров, Евгений Гвоздев, Олег Белонучкин, Валерий Кравченко, Евгений Леонов-Гладышев, Семен Морозов, Юрий Лазарев, Георгий Тейх

Перевод: Не требуется
Субтитры: Отсутствуют

Описание:
В 1934 году в Чукотском море раздавлен льдами и затонул пароход «Челюскин». Экипаж судна и участники научной экспедиции высадились на дрейфующую льдину, на которой они продержались два месяца. Как жили герои на льдине? В хорошую погоду играли в футбол. Вспоминали о большой земле, боролись с болезнями, мечтали, мерзли. А по вечерам слушали драгоценную пластинку Марлен Дитрих.


Дополнительно:
MediaInfo ▼Text
"1 часть" ▼Общее
Полное имя :K:2. РАЗДАЧАЧелюскинцыCheluskinci1_Cheluskinci.avi
Формат :AVI
Размер :753 MiB
Продолжительность :01:04:10.440
Общий поток :1 640 Kbps
Программа кодирования :VirtualDubModRus 1.5.10.2 (build 2542/release)
Библиотека кодирования :VirtualDubMod build 2542/release

Видео
Идентификатор :0
Формат :MPEG-4 Visual
Профиль формата :Advanced [email protected]
Параметр BVOP формата :2
Параметр Qpel формата :No
Параметр GMC формата :0
Параметр Matrix формата :Default (H.263)
Идентификатор кодека :XVID
Продолжительность :1h 4mn 10s 440ms
Битрейт :1 438 Kbps
Ширина :672 pixels
Высота :512 pixels
Соотношение сторон :1.313
Частота кадров :25.000 fps
Глубина цвета :8 bits
Подвыборка цветности :4:2:0
Цветовое пространство :YUV
Тип развертки :Progressive
Бит/(Пиксели*Кадры) :0.167
Размер потока :660 MiB (88%)
Библиотека кодирования :XviD0063

Аудио #1
Идентификатор :1
Формат :MPEG Audio
Идентификатор кодека :55
Продолжительность :01:04:10.440
Вид битрейта :Constant
Битрейт :192 Kbps
Канал(ы) :2 channels
Частота :48.0 KHz
Метод сжатия :Lossy
Размер потока :88.1 MiB (12%)

"2 часть" ▼Общее
Полно
4ad916ae9b0277b4f34b7d1554e6ac15c69e1d96Челюскинцы (2 части из 2) (Михаил Ершов, приключения, 1984) [TVRip, Не требуется] Челюскинцы (2 части из 2) (Михаил Ершов, приключения, 1984) [TVRip, Не требуется] " />

Аплоадер: Админ, дата: 10-12-2012, 18:53, торрент скачан: 359 раз

Понравилась раздача? Посмотрите эти:
  • Дни хирурга Мишкина (3 части из 3) (Вадим Зобин, драма, 1967) [DVDRip, Не т ...
  • Ошибка резидента (2 части из 2) (Вениамин Дорман, детектив, 1968) [DVDRip, ...
  • Судьба резидента (2 части из 2) (Вениамин Дорман, детектив, приключения, 19 ...
  • Возвращение резидента (2 части из 2) (Вениамин Дорман, триллер, 1982) [DVDR ...
  • Конец операции «Резидент» (2 части из 2) (Вениамин Дорман, боевик, приключе ...
  • Макар-следопыт (3 части из 3) (Николай Ковальский, семейный, 1984) [DVDRip, ...
  • Люди и манекены (4 части из 4) (Виктор Храмов, Аркадий Райкин, комедия, 197 ...
  • Дон Сезар де Базан (2 части из 2) (Ян Фрид, мюзикл, комедия, 1989) [DVDRip, ...
  • Балтийское небо (2 части из 2) (Владимир Венгеров, драма, военный, история, ...
  • Вся королевская рать (3 части из 3) (Наум Ардашников, Александр Гуткович, д ...
  • Анискин и Фантомас (2 части из 2) (Михаил Жаров, Владимир Рапопорт, комедия ...
  • Операция «Трест» (4 части из 4) (Сергей Колосов, приключения, история, 1967 ...
  • Объяснение в любви (2 части из 2) (Илья Авербах, мелодрама, 1977) [DVDRip, ...
  • Карнавал (2 части из 2) (Татьяна Лиознова, мюзикл, комедия, 1981) [DVDRip, ...
  • Степь (2 части из 2) (Сергей Бондарчук, драма, история, 1977) [DVDRip, Не т ...
  • У меня есть лев (2 части из 2) (Константин Бромберг, драма, комедия, приклю ...
  • Раннее, раннее утро... (3 части из 3) (Валерий Харченко, семейный, 1983) [T ...
  • Ханума (2 части из 2) (Георгий Товстоногов, мюзикл, комедия, 1978) [DVDRip, ...
  • Почти смешная история (2 части из 2) (Петр Фоменко, мелодрама, комедия, 197 ...
  • Председатель (2 части из 2) (Алексей Салтыков, драма, 1964) [DVDRip, Не тре ...
  • Тихий Дон (3 части из 3) (Сергей Герасимов, драма, военный, 1957) [DVDRip, ...
  • В лесах под Ковелем (3 части из 3) (Юрий Тупицкий, военный, история, 1984) ...
  • Гений (2 части из 2) (Виктор Сергеев, Комедия, криминал, 1991) [DVDRip, Не ...
  • Дядюшкин сон (2 части из2) (Александр Орлов, драма, комедия, 1981) [DVDRip, ...
  • Неизвестный солдат (3 части из 3) (Григорий Аронов, Вадим Зобин, драма, 198 ...
  • Информация
    Посетители, находящиеся в группе Гости, не могут оставлять комментарии к данной публикации.