вход на сайт

Имя пользователя :
Пароль :

Восстановление пароля Регистрация
Я, бабушка, Илико и Илларион (Тенгиз Абуладзе, мелодрама, комедия, 1962) [DVDRip, Профессиональный (полное дублирование)]
Рейтинг:
(голосов: 1)



[img]{THEME}/images/logopost.png[/img]



Я, бабушка, Илико и Илларион

Год выпуска: 1962
Страна: СССР
Производство: Грузия-фильм
Жанр: мелодрама, комедия

Режиссёр: Тенгиз Абуладзе
В ролях: Сосо Орджоникидзе, Сесилия Такаишвили, Александр Жоржолиани, Григол Ткабладзе, Манана Абазадзе, Кира Андроникашвили, Тенгиз Даушвили, Иосиф Гогичаишвили, Шалва Херхеулидзе, Александр Гомелаури

Перевод: Профессиональный (полное дублирование)
Субтитры: Отсутствуют

Описание:
Экранизация рассказа Нодара Думбадзе. Нежное и грустное повествование о жизни и повседневных заботах жителей большого грузинского села, увиденной глазами подростка.


Дополнительно:
MediaInfo ▼Text
Общее
Полное имя :D:. РАЗДАЧАГрузия-фильмЯ, бабушка, Илико и ИлларионЯ, бабушка, Илико и Илларион.1962.avi
Формат :AVI
Размер :1.07 GiB
Продолжительность :01:25:29.920
Общий поток :1 796 Kbps
Программа кодирования :VirtualDubMod 1.5.4.1 (build 2178/release)
Библиотека кодирования :VirtualDubMod build 2178/release

Видео
Идентификатор :0
Формат :MPEG-4 Visual
Профиль формата :Advanced [email protected]
Параметр BVOP формата :1
Параметр Qpel формата :No
Параметр GMC формата :0
Параметр Matrix формата :Custom
Идентификатор кодека :XVID
Продолжительность :1h 25mn 29s 920ms
Битрейт :1 597 Kbps
Ширина :688 pixels
Высота :512 pixels
Соотношение сторон :1.344
Частота кадров :25.000 fps
Глубина цвета :8 bits
Подвыборка цветности :4:2:0
Цветовое пространство :YUV
Тип развертки :Progressive
Бит/(Пиксели*Кадры) :0.181
Размер потока :977 MiB (89%)
Библиотека кодирования :XviD0050

Аудио #1
Идентификатор :1
Формат :AC-3
Формат/Информация :Audio Coding 3
Идентификатор кодека :2000
Продолжительность :01:25:29.856
Вид битрейта :Constant
Битрейт :192 Kbps
Канал(ы) :2 channels
Расположение каналов :Front: L R
Частота :48.0 KHz
Битовая глубина :16 bits
Метод сжатия :Lossy
Размер потока :117 MiB (11
0ae2981cac0b475209c49456a549b0b654275e7fЯ, бабушка, Илико и Илларион (Тенгиз Абуладзе, мелодрама, комедия, 1962) [DVDRip, Профессиональный (полное дублирование)] Я, бабушка, Илико и Илларион (Тенгиз Абуладзе, мелодрама, комедия, 1962) [DVDRip, Профессиональный (полное дублирование)] " />

Аплоадер: Админ, дата: 10-12-2012, 18:30, торрент скачан: 359 раз

Понравилась раздача? Посмотрите эти:
  • Воздыхатель / Le soupirant (Пьер Этекс, комедия, 1962) [DVDRip, Профессиона ...
  • Лурджа Магданы (Тенгиз Абуладзе, Резо Чхеидзе, драма, 1955) [DVDRip, Не тре ...
  • Два гусара (Вячеслав Криштофович, мелодрама, 1984) [DVDRip, Не требуется]
  • Мольба (Тенгиз Абуладзе, драма, 1967) [DVDRip, Не требуется]
  • Древо желания (Тенгиз Абуладзе, драма, 1976) [DVDRip, Не требуется]
  • Покаяние (Тенгиз Абуладзе, драма, комедия, 1984) [DVDRip, Профессиональный ...
  • Моя любовь (Владимир Корш-Саблин, мюзикл, мелодрама, комедия, 1940) [DVDRip ...
  • Печёнка (Арман Манарян, короткометражка, комедия, 1962) [DVDRip, Не требует ...
  • Процесс Жанны Д Арк / Proces de Jeanne dArc (Робер Брессон, драма, военный, ...
  • Черная чайка (Григорий Колтунов, приключения, 1962) [DVDRip, Не требуется]
  • Семь нянек (Ролан Быков, комедия, 1962) [DVDRip, Не требуется]
  • Слуги дьявола на Чёртовой мельнице (Александр Лейманис, комедия, приключени ...
  • Слуги Дьявола (Александр Лейманис, комедия, приключения, 1970) [DVDRip, Про ...
  • Как украсть миллион / How to steal a million (Уильям Уайлер, комедия, крими ...
  • Смешная девчонка / Funny Girl (Уильям Уайлер , мюзикл, драма, мелодрама, ко ...
  • Дьявол и десять заповедей / Le diable et les dix commandements (Жюльен Дюви ...
  • Сокровище Серебряного озера / Der Schatz im Silbersee (Харальд Райнль, прик ...
  • Ганг, твои воды замутились / Ram Teri Ganga Maili (Радж Капур, мюзикл, мело ...
  • Чудак-человек (Владимир Кочетов, комедия, 1962) [DVDRip, Не требуется]
  • Карьера Димы Горина (Фрунзе Довлатян, Лев Мирский, комедия, 1962) [DVDRip, ...
  • Информация
    Посетители, находящиеся в группе Гости, не могут оставлять комментарии к данной публикации.