вход на сайт

Имя пользователя :
Пароль :

Восстановление пароля Регистрация
Небывальщина (Сергей Овчаров, комедия, 1983) [DVDRip, Не требуется]
Рейтинг:
(голосов: 1)



[img]{THEME}/images/logopost.png[/img]



Небывальщина

Год выпуска: 1983
Страна: СССР
Производство: Ленфильм
Жанр: комедия

Режиссёр: Сергей Овчаров
В ролях: Александр Кузнецов, Алексей Булдаков, Сергей Бехтерев, Игорь Иванов, Нина Усатова, Маргарита Матвеева, Вячеслав Полунин, Николай Терентьев, Валерий Захарьев, Ирина Алешина

Перевод: Не требуется
Субтитры: Отсутствуют

Описание:



Дополнительно:
MediaInfo ▼Text
Общее
Полное имя :L:3.РаздачаНебывальщинаNebyvalschina.avi
Формат :AVI
Размер :1.37 GiB
Продолжительность :01:17:21.640
Общий поток :2 531 Kbps
Программа кодирования :VirtualDubMod 1.5.4.1 (build 2178/release)
Библиотека кодирования :VirtualDubMod build 2178/release

Видео
Идентификатор :0
Формат :MPEG-4 Visual
Профиль формата :Advanced [email protected]
Параметр BVOP формата :1
Параметр Qpel формата :No
Параметр GMC формата :0
Параметр Matrix формата :Custom
Идентификатор кодека :XVID
Продолжительность :1h 17mn 21s 640ms
Битрейт :2 076 Kbps
Ширина :640 pixels
Высота :480 pixels
Соотношение сторон :1.333
Частота кадров :25.000 fps
Глубина цвета :8 bits
Подвыборка цветности :4:2:0
Цветовое пространство :YUV
Тип развертки :Progressive
Бит/(Пиксели*Кадры) :0.270
Размер потока :1.12 GiB (82%)
Библиотека кодирования :XviD0050

Аудио #1
Идентификатор :1
Формат :AC-3
Формат/Информация :Audio Coding 3
Идентификатор кодека :2000
Продолжительность :01:17:19.488
Вид битрейта :Constant
Битрейт :448 Kbps
Канал(ы) :6 channels
Расположение каналов :Front: L C R, Side: L R, LFE
Частота :48.0 KHz
Битовая глубина :16 bits
Метод сжатия :Lossy
Размер потока :248 MiB (18%)Тех. данные:
Качество:DVDRip
Продолжительность:01:17:20 час

Формат: AVI
Видео кодек: XviD
Аудио кодек: AC3
Видео: 640 x 480 (4:3), 25.000 fps, 2 076 Kbps, 0.270 bi
c3b676cdf473c8b4a8bc4177d30e7cf8b16de242Небывальщина (Сергей Овчаров, комедия, 1983) [DVDRip, Не требуется] Небывальщина (Сергей Овчаров, комедия, 1983) [DVDRip, Не требуется] " />

Аплоадер: Админ, дата: 9-12-2012, 18:59, торрент скачан: 359 раз

Понравилась раздача? Посмотрите эти:
  • Божья тварь (Галина Данелия-Юркова, комедия, 1991) [DVDRip, Не требуется]
  • Каштанка (Роман Балаян, приключения, 1975) [DVDRip, Не требуется]
  • Два гусара (Вячеслав Криштофович, мелодрама, 1984) [DVDRip, Не требуется]
  • Где это видано, где это слыхано (Валентин Горлов, короткометражка, комедия, ...
  • Шел четвертый год войны... (Георгий Николаенко, военный, 1983) [DVDRip, Не ...
  • Старшина (Николай Кошелев, драма, 1979) [DVDRip, Не требуется]
  • Прощай, шпана замоскворецкая... (Александр Панкратов, драма, мелодрама, 198 ...
  • Завтрак на траве (Николай Александрович, детский, комедия, 1979) [DVDRip, Н ...
  • Ой, вы, гуси... (Лидия Боброва, Драма, 1991) [DVDRip, Не требуется]
  • Моя любовь (Владимир Корш-Саблин, мюзикл, мелодрама, комедия, 1940) [DVDRip ...
  • Левша (Сергей Овчаров, драма, комедия, 1986) [DVDRip, Не требуется]
  • Комедия ошибок (2 части из 2) (Вадим Гаузнер, комедия, 1978) [DVDRip, Не тр ...
  • Черная чайка (Григорий Колтунов, приключения, 1962) [DVDRip, Не требуется]
  • Рысь выходит на тропу (Агаси Бабаян, комедия, 1983) [DVDRip, Не требуется]
  • Чудак из пятого «Б» (Илья Фрэз, комедия, семейный, 1972) [DVDRip, Не требуе ...
  • Взятки гладки (2 части из 2) (Игорь Масленников, Комедия, 2008) [DVDRip, Не ...
  • Степь (2 части из 2) (Сергей Бондарчук, драма, история, 1977) [DVDRip, Не т ...
  • Спортлото-82 (Леонид Гайдай, комедия, приключения, 1982) [DVDRip, Не требуе ...
  • Приключения маленького папы (Дмитрий Крупко, детский, комедия, 1979) [DVDRi ...
  • Сказка о Звездном мальчике (2 части из 2) (Леонид Нечаев, фэнтези, 1983) [D ...
  • Золотая речка (Вениамин Дорман, приключения, 1977) [DVDRip, Не требуется]
  • Дом на дюнах (Дмитрий Салынский, приключения, 1984) [DVDRip, Не требуется]
  • Ключи от неба (Виктор Иванов, комедия, 1964) [DVDRip, Не требуется]
  • Карьера Димы Горина (Фрунзе Довлатян, Лев Мирский, комедия, 1962) [DVDRip, ...
  • Целуются зори (Сергей Никоненко, комедия, 1978) [DVDRip, Не требуется]
  • Информация
    Посетители, находящиеся в группе Гости, не могут оставлять комментарии к данной публикации.