вход на сайт

Имя пользователя :
Пароль :

Восстановление пароля Регистрация
Дача (Константин Воинов, комедия, 1974) [DVDRip, Не требуется]
Рейтинг:
(голосов: 1)



[img]{THEME}/images/logopost.png[/img]



Дача

Год выпуска: 1974
Страна: СССР
Производство: Мосфильм
Жанр: комедия

Режиссёр: Константин Воинов
В ролях: Александр Вокач, Лидия Смирнова, Людмила Шагалова, Евгений Евстигнеев, Людмила Гурченко, Олег Табаков, Роза Макагонова, Владимир Басов, Анатолий Папанов, Клара Лучко

Перевод: Не требуется
Субтитры: Отсутствуют

Описание:
Скопив на дачу денег и облюбовав подходящий домик, супруги Петровы решили не мешкая вступить в права владения. Прямо из сберкассы жена едет на садовый участок, а мужу предстоит расплатиться в Москве с хозяевами. Однако толстая пачка денег исчезает из его кармана…


Дополнительно:
MediaInfo ▼Text
Общее
Полное имя :J:1. РАЗДАЧАДачаDacha.1973.DVDRip.avi
Формат :AVI
Размер :1.37 GiB
Продолжительность :01:24:22.680
Общий поток :2 321 Kbps
Программа кодирования :VirtualDubMod 1.5.4.1 (build 2178/release)
Библиотека кодирования :VirtualDubMod build 2178/release

Видео
Идентификатор :0
Формат :MPEG-4 Visual
Параметр BVOP формата :1
Параметр Qpel формата :No
Параметр GMC формата :0
Параметр Matrix формата :Default (H.263)
Идентификатор кодека :DX50
Продолжительность :1h 24mn 22s 680ms
Битрейт :1 930 Kbps
Ширина :704 pixels
Высота :528 pixels
Соотношение сторон :1.333
Частота кадров :25.000 fps
Глубина цвета :8 bits
Подвыборка цветности :4:2:0
Цветовое пространство :YUV
Тип развертки :Progressive
Бит/(Пиксели*Кадры) :0.208
Размер потока :1.14 GiB (83%)
Библиотека кодирования :DivX503b2816p

Аудио #1
Идентификатор :1
Формат :AC-3
Формат/Информация :Audio Coding 3
Идентификатор кодека :2000
Продолжительность :01:24:22.208
Вид битрейта :Constant
Битрейт :384 Kbps
Канал(ы) :2 channels
Расположение каналов :Front: L R
Частота :48.0 KHz
Битовая глубина :16 bits
Метод сжатия :Lossy
Размер потока :232 MiB (17%)
Язык :Russian
c385fa72c0e32456d3235e6dd4540f733dfb2661Дача (Константин Воинов, комедия, 1974) [DVDRip, Не требуется] Дача (Константин Воинов, комедия, 1974) [DVDRip, Не требуется] " />

Аплоадер: Админ, дата: 9-12-2012, 16:20, торрент скачан: 359 раз

Понравилась раздача? Посмотрите эти:
  • На подмостках сцены (Константин Юдин, драма, комедия, 1956) [DVDRip, Не тре ...
  • Где это видано, где это слыхано (Валентин Горлов, короткометражка, комедия, ...
  • Три дня в Москве (2 части из 2) (Алексей Коренев, комедия, 1974) [DVDRip, Н ...
  • Иван да Марья (Борис Рыцарев, фэнтези, мелодрама, комедия, семейный, музыка ...
  • Опекун (Эдгар Ходжикян, Альберт С. Мкртчян, комедия, 1970) [DVDRip, Не треб ...
  • Моя любовь (Владимир Корш-Саблин, мюзикл, мелодрама, комедия, 1940) [DVDRip ...
  • Левша (Сергей Овчаров, драма, комедия, 1986) [DVDRip, Не требуется]
  • Дача (Константин Воинов, Комедия, 1973) [DVDRip]
  • Рудин (Константин Воинов, мелодрама, 1977) [DVDRip, Не требуется]
  • Чудный характер (Константин Воинов, драма, 1970) [DVDRip, Не требуется]
  • Небывальщина (Сергей Овчаров, комедия, 1983) [DVDRip, Не требуется]
  • Чудак из пятого «Б» (Илья Фрэз, комедия, семейный, 1972) [DVDRip, Не требуе ...
  • Карусель (Михаил Швейцер, комедия, 1970) [DVDRip, Не требуется]
  • Танкер «Дербент» (Александр Файнциммер, приключения, 1940) [DVDRip, Не треб ...
  • Прощайте, фараоны! (Давид Черкасский, Вячеслав Винник, комедия, 1974) [DVDR ...
  • Приехали на конкурс повара (Нерсес Оганесян, комедия, 1977) [DVDRip, Не тре ...
  • Здравствуйте, я ваша тетя! (Виктор Титов, комедия, 1974) [DVDRip, Не требуе ...
  • Дядюшкин сон (Константин Воинов, драма, 1966) [DVDRip, Не требуется]
  • Сердца четырех (Константин Юдин, мелодрама, комедия, 1941) [DVDRip, Не треб ...
  • Карьера Димы Горина (Фрунзе Довлатян, Лев Мирский, комедия, 1962) [DVDRip, ...
  • Информация
    Посетители, находящиеся в группе Гости, не могут оставлять комментарии к данной публикации.