вход на сайт

Имя пользователя :
Пароль :

Восстановление пароля Регистрация
Солдат и слон (Дмитрий Кесаянц, комедия, военный, 1977) [DVDRip, Не требуется]
Рейтинг:
(голосов: 1)



[img]{THEME}/images/logopost.png[/img]



Солдат и слон

Год выпуска: 1977
Страна: СССР
Производство: Арменфильм
Жанр: комедия, военный

Режиссёр: Дмитрий Кесаянц
В ролях: Фрунзик Мкртчян, Владимир Рындин, Владимир Пицек, Ованес Ванян, Валентина Давтян, Стяпонас Космаускас, Вадим Грачев, Алексей Бахарь, Алексей Дмитриев, А. Морковскис

Перевод: Не требуется
Субтитры: Отсутствуют

Описание:
Во время ожесточенных боев на территории Германии, в самый разгар штурма одного из особняков, бойцами был обнаружен… слон. Рядовому Арменаку было приказано вывести животное из-под огня. Чего только не пришлось пережить Арменаку, прежде чем он с честью выполнит задание, осознает всю серьезность и гуманность своей миссии.


Дополнительно:
MediaInfo ▼Text
Общее
Полное имя :J:1. РАЗДАЧАСолдат и слонSoldat_i_slon.avi
Формат :AVI
Размер :1.08 GiB
Продолжительность :01:16:59.760
Общий поток :2 013 Kbps
Программа кодирования :VirtualDubMod 1.5.10.2 (build 2540/release)
Библиотека кодирования :VirtualDub build 24442/release

Видео
Идентификатор :0
Формат :MPEG-4 Visual
Параметр BVOP формата :1
Параметр Qpel формата :No
Параметр GMC формата :0
Параметр Matrix формата :Default (H.263)
Идентификатор кодека :DX50
Продолжительность :1h 16mn 59s 760ms
Битрейт :1 811 Kbps
Ширина :704 pixels
Высота :320 pixels
Соотношение сторон :2.200
Частота кадров :25.000 fps
Глубина цвета :8 bits
Подвыборка цветности :4:2:0
Цветовое пространство :YUV
Тип развертки :Progressive
Бит/(Пиксели*Кадры) :0.322
Размер потока :997 MiB (90%)
Библиотека кодирования :DivX503b1988p

Аудио #1
Идентификатор :1
Формат :AC-3
Формат/Информация :Audio Coding 3
Идентификатор кодека :2000
Продолжительность :01:16:59.744
Вид битрейта :Constant
Битрейт :192 Kbps
Канал(ы) :2 channels
Расположение каналов :Front: L R
Частота :48.0 KHz
Битовая глубина :16 bits
Метод сжатия :Lossy
Размер потока :106 MiB (10%)
31cf450e5059dd1dc80c95884dbbc9c5dc89c857Солдат и слон (Дмитрий Кесаянц, комедия, военный, 1977) [DVDRip, Не требуется] Солдат и слон (Дмитрий Кесаянц, комедия, военный, 1977) [DVDRip, Не требуется] " />

Аплоадер: Админ, дата: 8-12-2012, 20:53, торрент скачан: 359 раз

Понравилась раздача? Посмотрите эти:
  • Бой под Соколом (Александр Разумный, военный, 1942) [DVDRip, Не требуется]
  • Божья тварь (Галина Данелия-Юркова, комедия, 1991) [DVDRip, Не требуется]
  • Крепкий орешек (Теодор Вульфович, комедия, военный, 1967) [DVDRip, Не требу ...
  • Тачанка с Юга (Евгений Шерстобитов, приключения, 1977) [DVDRip, Не требуетс ...
  • Пакет (Владимир Назаров, комедия, приключения, семейный, 1965) [DVDRip, Не ...
  • Опекун (Эдгар Ходжикян, Альберт С. Мкртчян, комедия, 1970) [DVDRip, Не треб ...
  • Комиссар (Александр Аскольдов, драма, военный, 1967) [DVDRip, Не требуется] ...
  • Славный малый (Борис Барнет, военный, 1943) [DVDRip, Не требуется]
  • Шельменко-денщик (Андрей Тутышкин, мюзикл, комедия, 1971) [DVDRip, Не требу ...
  • Собака на сене (Реставрирован) (Ян Фрид, мюзикл, комедия, 1977) [DVDRip, Не ...
  • Разведчики (Игорь Самборский, Алексей Швачко, приключения, военный, 1968) [ ...
  • Приехали на конкурс повара (Нерсес Оганесян, комедия, 1977) [DVDRip, Не тре ...
  • Приключения маленького папы (Дмитрий Крупко, детский, комедия, 1979) [DVDRi ...
  • Солдатки (Валентин Козачков, драма, 1977) [DVDRip, Не требуется]
  • Солдат и слон (Дмитрий Кесаянц, военный,комедия,1977) [DVDRip, не требует ...
  • Хозяин и слуга (Дмитрий Кесаянц, короткометражка, комедия, 1963) [DVDRip, Н ...
  • Беспокойное хозяйство (Михаил Жаров, мюзикл, комедия, военный, 1945) [DVDRi ...
  • Р.В.С. (Алексей Мороз, военный, 1977) [DVDRip, (2х)Оригинал (русский)]
  • Адмирал Нахимов (Всеволод Пудовкин, драма, военный, биография, история, 194 ...
  • Женя, Женечка и «Катюша» (Владимир Мотыль, мелодрама, комедия, военный, 196 ...
  • Информация
    Посетители, находящиеся в группе Гости, не могут оставлять комментарии к данной публикации.