вход на сайт

Имя пользователя :
Пароль :

Восстановление пароля Регистрация
Три рубля / Sami maneti (Рамаз Шарабидзе, короткометражка, комедия, 1976) [TVRip, Профессиональный (полное дублирование)]
Рейтинг:
(голосов: 1)



[img]{THEME}/images/logopost.png[/img]



Три рубля / Sami maneti

Год выпуска: 1976
Страна: СССР
Производство: Грузия-телефильм
Жанр: короткометражка, комедия

Режиссёр: Рамаз Шарабидзе
В ролях: Кахи Кавсадзе, Гиви Берикашвили, Баадур Цуладзе

Перевод: Профессиональный (полное дублирование)
Субтитры: Отсутствуют

Описание:
Одна из новелл цикла комедийных короткометражных фильмов «дорога», рассказывающих о веселых приключениях трех дорожных мастеров, обладающих замечательными, самобытными характерами. Однажды герои находят на дороге три рубля. Казалось бы, чего проще: разделить три на три? Но веселые друзья знают более простые и понятные решения…


Дополнительно:
MediaInfo ▼Text
Общее
Полное имя :D:. РАЗДАЧАГрузия-фильмТри рубляTri.rublya.1976.XviD.avi
Формат :AVI
Размер :250 MiB
Продолжительность :00:20:30.240
Общий поток :1 707 Kbps

Видео
Идентификатор :0
Формат :MPEG-4 Visual
Профиль формата :Advanced [email protected]
Параметр BVOP формата :1
Параметр Qpel формата :No
Параметр GMC формата :0
Параметр Matrix формата :Default (MPEG)
Идентификатор кодека :XVID
Продолжительность :20mn 30s 240ms
Битрейт :1 506 Kbps
Ширина :704 pixels
Высота :528 pixels
Соотношение сторон :1.333
Частота кадров :25.000 fps
Глубина цвета :8 bits
Подвыборка цветности :4:2:0
Цветовое пространство :YUV
Тип развертки :Progressive
Бит/(Пиксели*Кадры) :0.162
Размер потока :221 MiB (88%)
Библиотека кодирования :XviD0050

Аудио #1
Идентификатор :1
Формат :AC-3
Формат/Информация :Audio Coding 3
Идентификатор кодека :2000
Продолжительность :00:20:30.240
Вид битрейта :Constant
Битрейт :192 Kbps
Канал(ы) :2 channels
Расположение каналов :Front: L R
Частота :48.0 KHz
Битовая глубина :16 bits
Метод сжатия :Lossy
Размер потока :28.2 MiB (11%)
Язык : cТех. данные:
Качество:&n
08896bab1e139ed67335f81b16e7d2e35b77a988Три рубля / Sami maneti (Рамаз Шарабидзе, короткометражка, комедия, 1976) [TVRip, Профессиональный (полное дублирование)] Три рубля / Sami maneti (Рамаз Шарабидзе, короткометражка, комедия, 1976) [TVRip, Профессиональный (полное дублирование)] " />

Аплоадер: Админ, дата: 8-12-2012, 20:42, торрент скачан: 359 раз

Понравилась раздача? Посмотрите эти:
  • Сигнальщик / The Signalman (Лоуренс Гордон Кларк, короткометражка, ужасы, ...
  • Девушка со швейной машинкой (Михаил Чиаурели, Георгий Шенгелая, комедия, 19 ...
  • Сапоги (Владимир Немоляев, короткометражка, драма, комедия, 1957) [DVDRip, ...
  • Древо желания (Тенгиз Абуладзе, драма, 1976) [DVDRip, Не требуется]
  • Печёнка (Арман Манарян, короткометражка, комедия, 1962) [DVDRip, Не требует ...
  • Пес Барбос и необычный кросс / Самогонщики / «Сто грамм» для храбрости (Лео ...
  • Субботний вечер / Shabat sagamo (Рамаз Шарабидзе, короткометражка, комедия, ...
  • Бабочка (Нелли Ненова, Гено Цулая, короткометражка, мелодрама, 1977) [TVRip ...
  • Термометр (Рамаз Шарабидзе, короткометражка, 1976) [TVRip, Профессиональный ...
  • Лимонный торт (Амиран Дарсавелидзе, Реваз Габриадзе, короткометражка, комед ...
  • Удача (Баадур Цуладзе, короткометражка, комедия, 1980) [TVRip, Профессионал ...
  • Три жениха / Sami sasizo (Резо Чархалашвили, короткометражка, комедия, 1978 ...
  • Пари (Рамаз Шарабидзе, короткометражка, комедия, 1974) [TVRip, Профессионал ...
  • Покорители гор / Msvervalis dampkrobni (Амиран Дарсавелидзе, Реваз Габриадз ...
  • Всё дело в брате (Валентин Горлов, семейный, 1976) [TVRip, Не требуется]
  • Русалочка (Владимир Бычков, мюзикл, фэнтези, мелодрама, семейный, 1976) [DV ...
  • Попугай, говорящий на идиш (Эфраим Севела, драма, комедия, приключения, вое ...
  • Короткометражные фильмы о весёлых приключениях трёх дорожных мастеров (Резо ...
  • Хозяин и слуга (Дмитрий Кесаянц, короткометражка, комедия, 1963) [DVDRip, Н ...
  • Как рождаются тосты (Всеволод Массино, Оскар Герц, Андрей Тутышкин, коротко ...
  • Информация
    Посетители, находящиеся в группе Гости, не могут оставлять комментарии к данной публикации.