вход на сайт

Имя пользователя :
Пароль :

Восстановление пароля Регистрация
Покорители гор / Msvervalis dampkrobni (Амиран Дарсавелидзе, Реваз Габриадзе, короткометражка, 1977) [TVRip, Профессиональный (полное дублирование)]
Рейтинг:
(голосов: 1)



[img]{THEME}/images/logopost.png[/img]



Покорители гор / Msvervalis dampkrobni

Год выпуска: 1977
Страна: СССР
Производство: Грузия-телефильм
Жанр: короткометражка

Режиссёр: Амиран Дарсавелидзе, Реваз Габриадзе
В ролях: Кахи Кавсадзе, Гиви Берикашвили, Баадур Цуладзе, Дж. Грдзелишвили, Давит Ломидзе, М. Симхаев, Н. Чогошвили, Джими Ломидзе

Перевод: Профессиональный (полное дублирование)
Субтитры: Отсутствуют

Описание:
«Добровольная» запись в секцию альпинизма вылилась в плановое покорение местных вершин, при полном отсутствии каких-либо навыков ориентирования.


Дополнительно:
MediaInfo ▼Text
Общее
Полное имя :D:. РАЗДАЧАГрузия-фильмПокорители горPokoriteli.gor.1977.XviD.avi
Формат :AVI
Размер :251 MiB
Продолжительность :00:19:01.680
Общий поток :1 841 Kbps

Видео
Идентификатор :0
Формат :MPEG-4 Visual
Профиль формата :Advanced [email protected]
Параметр BVOP формата :1
Параметр Qpel формата :No
Параметр GMC формата :0
Параметр Matrix формата :Default (MPEG)
Идентификатор кодека :XVID
Продолжительность :19mn 1s 680ms
Битрейт :1 640 Kbps
Ширина :704 pixels
Высота :528 pixels
Соотношение сторон :1.333
Частота кадров :25.000 fps
Глубина цвета :8 bits
Подвыборка цветности :4:2:0
Цветовое пространство :YUV
Тип развертки :Progressive
Бит/(Пиксели*Кадры) :0.176
Размер потока :223 MiB (89%)
Библиотека кодирования :XviD0050

Аудио #1
Идентификатор :1
Формат :AC-3
Формат/Информация :Audio Coding 3
Идентификатор кодека :2000
Продолжительность :00:19:01.664
Вид битрейта :Constant
Битрейт :192 Kbps
Канал(ы) :2 channels
Расположение каналов :Front: L R
Частота :48.0 KHz
Битовая глубина :16 bits
Метод сжатия :Lossy
Размер потока :26.1 MiB (10%)
Язык : cТех. данные:
Качество:TVRip
Продолжительность:00:19:00 час

Формат: AVI
81a9bb8e5014e5d4f4003d1525d39ab4d6b60b27Покорители гор / Msvervalis dampkrobni (Амиран Дарсавелидзе, Реваз Габриадзе, короткометражка, 1977) [TVRip, Профессиональный (полное дублирование)] Покорители гор / Msvervalis dampkrobni (Амиран Дарсавелидзе, Реваз Габриадзе, короткометражка, 1977) [TVRip, Профессиональный (полное дублирование)] " />

Аплоадер: Админ, дата: 8-12-2012, 20:36, торрент скачан: 359 раз

Понравилась раздача? Посмотрите эти:
  • Наапет (Генрих Малян, драма, 1977) [DVDRip, Профессиональный (полное дублир ...
  • Кукарача (Кети Долидзе, Сико Долидзе, драма, 1982) [DVDRip, Профессиональны ...
  • Девушка со швейной машинкой (Михаил Чиаурели, Георгий Шенгелая, комедия, 19 ...
  • Берега (7 частей из 7) (Гизо Габескирия, Гига Лордкипанидзе, боевик, драма, ...
  • Сказание о храбром витязе Фэт-Фрумосе (2 части из 2) (Влад Иовицэ, Николай ...
  • Чудовище / LAnimal (Клод Зиди, комедия, 1977) [DVDRip, Профессиональный (по ...
  • Мульт-Салют. 25 ч. из 30: Высокая горка/Колобок/Машенька и медведь/Чьи в ле ...
  • Субботний вечер / Shabat sagamo (Рамаз Шарабидзе, короткометражка, комедия, ...
  • Бабочка (Нелли Ненова, Гено Цулая, короткометражка, мелодрама, 1977) [TVRip ...
  • Термометр (Рамаз Шарабидзе, короткометражка, 1976) [TVRip, Профессиональный ...
  • Лимонный торт (Амиран Дарсавелидзе, Реваз Габриадзе, короткометражка, комед ...
  • Удача (Баадур Цуладзе, короткометражка, комедия, 1980) [TVRip, Профессионал ...
  • Три жениха / Sami sasizo (Резо Чархалашвили, короткометражка, комедия, 1978 ...
  • Пари (Рамаз Шарабидзе, короткометражка, комедия, 1974) [TVRip, Профессионал ...
  • Три рубля / Sami maneti (Рамаз Шарабидзе, короткометражка, комедия, 1976) [ ...
  • Я, бабушка, Илико и Илларион (Тенгиз Абуладзе, мелодрама, комедия, 1962) [D ...
  • Собака на сене (Реставрирован) (Ян Фрид, мюзикл, комедия, 1977) [DVDRip, Не ...
  • Приключения маленького Мука (Елизавета Кимягарова, мюзикл, семейный, 1983) ...
  • Короткометражные фильмы о весёлых приключениях трёх дорожных мастеров (Резо ...
  • Р.В.С. (Алексей Мороз, военный, 1977) [DVDRip, (2х)Оригинал (русский)]
  • Информация
    Посетители, находящиеся в группе Гости, не могут оставлять комментарии к данной публикации.