вход на сайт

Имя пользователя :
Пароль :

Восстановление пароля Регистрация
Пари (Рамаз Шарабидзе, короткометражка, комедия, 1974) [TVRip, Профессиональный (полное дублирование)]
Рейтинг:
(голосов: 1)



[img]{THEME}/images/logopost.png[/img]



Пари

Год выпуска: 1974
Страна: СССР
Производство: Грузия-телефильм
Жанр: короткометражка, комедия

Режиссёр: Рамаз Шарабидзе
В ролях: Кахи Кавсадзе, Баадур Цуладзе, Гиви Берикашвили, Вано Джавахишвили, Зураб Лаперадзе, Нино Эристави, Александре Купрашвили, Дато Кутателадзе, Б. Джикия, А. Чалвардишвили

Перевод: Профессиональный (полное дублирование)
Субтитры: Отсутствуют

Описание:
Пока Кахи (водитель машины) отдыхал на привале, его коллеги нашли на обочине кусок рельсы метра 2 длиной и поспорили между собой о том, что он сможет ее пронести до города — 7 километров, по жаре, без остановок.


Дополнительно:
MediaInfo ▼Text
Общее
Полное имя :D:. РАЗДАЧАГрузия-фильмПариPari.1974.XviD.TVRip.avi
Формат :DivX
Размер :488 MiB
Продолжительность :00:27:02.480
Общий поток :2 523 Kbps

Видео
Идентификатор :0
Формат :MPEG-4 Visual
Параметр BVOP формата :2
Параметр Qpel формата :No
Параметр GMC формата :0
Параметр Matrix формата :Default (H.263)
Идентификатор кодека :DX50
Продолжительность :27mn 2s 480ms
Битрейт :2 385 Kbps
Ширина :720 pixels
Высота :544 pixels
Соотношение сторон :1.324
Частота кадров :25.000 fps
Глубина цвета :8 bits
Подвыборка цветности :4:2:0
Цветовое пространство :YUV
Тип развертки :Progressive
Бит/(Пиксели*Кадры) :0.244
Размер потока :461 MiB (95%)
Библиотека кодирования :DivX503b1977p

Аудио #1
Идентификатор :1
Формат :MPEG Audio
Идентификатор кодека :55
Продолжительность :00:27:02.480
Вид битрейта :Constant
Битрейт :128 Kbps
Канал(ы) :1 channel
Частота :48.0 KHz
Метод сжатия :Lossy
Размер потока :24.8 MiB (5%)Тех. данные:
Качество:TVRip
Продолжительность:00:27:00 час

Формат: AVI
Видео кодек: DivX
Аудио кодек: MPA1L3
Видео: 720 x 544 (4:3), 25.000 fps, 2 385 Kbps, 0.244 bit/pixel
Аудио : 48.0 KHz, , 1 channel (), 128 Kbps



f71bea7cf2a80a477d2d23aa16cce97720b1768eПари (Рамаз Шарабидзе, короткометражка, комедия, 1974) [TVRip, Профессиональный (полное дублирование)] Пари (Рамаз Шарабидзе, короткометражка, комедия, 1974) [TVRip, Профессиональный (полное дублирование)] " />

Аплоадер: Админ, дата: 8-12-2012, 20:31, торрент скачан: 359 раз

Понравилась раздача? Посмотрите эти:
  • Люди и манекены (4 части из 4) (Виктор Храмов, Аркадий Райкин, комедия, 197 ...
  • Девушка со швейной машинкой (Михаил Чиаурели, Георгий Шенгелая, комедия, 19 ...
  • Где это видано, где это слыхано (Валентин Горлов, короткометражка, комедия, ...
  • Голубые горы или неправдоподобная история (Эльдар Шенгелая, комедия, 1983) ...
  • Сапоги (Владимир Немоляев, короткометражка, драма, комедия, 1957) [DVDRip, ...
  • Иван да Марья (Борис Рыцарев, фэнтези, мелодрама, комедия, семейный, музыка ...
  • Яд в стакане / Illatos ut a semmibe (Йожеф Магияр, комедия, 1974) [TVRip, П ...
  • Драма (Герман Ливанов, короткометражка, комедия, 1960) [DVDRip, Не требуетс ...
  • Трое на снегу / Drei Manner im Schnee (Альфред Форер, комедия, 1974) [DVDRi ...
  • Субботний вечер / Shabat sagamo (Рамаз Шарабидзе, короткометражка, комедия, ...
  • Бабочка (Нелли Ненова, Гено Цулая, короткометражка, мелодрама, 1977) [TVRip ...
  • Термометр (Рамаз Шарабидзе, короткометражка, 1976) [TVRip, Профессиональный ...
  • Лимонный торт (Амиран Дарсавелидзе, Реваз Габриадзе, короткометражка, комед ...
  • Удача (Баадур Цуладзе, короткометражка, комедия, 1980) [TVRip, Профессионал ...
  • Три жениха / Sami sasizo (Резо Чархалашвили, короткометражка, комедия, 1978 ...
  • Покорители гор / Msvervalis dampkrobni (Амиран Дарсавелидзе, Реваз Габриадз ...
  • Три рубля / Sami maneti (Рамаз Шарабидзе, короткометражка, комедия, 1976) [ ...
  • Я, бабушка, Илико и Илларион (Тенгиз Абуладзе, мелодрама, комедия, 1962) [D ...
  • Приключения маленького Мука (Елизавета Кимягарова, мюзикл, семейный, 1983) ...
  • Попугай, говорящий на идиш (Эфраим Севела, драма, комедия, приключения, вое ...
  • Короткометражные фильмы о весёлых приключениях трёх дорожных мастеров (Резо ...
  • Ужицкая республика / Uzicka Republika (Жика Митрович, драма, военный, 1974) ...
  • Хозяин и слуга (Дмитрий Кесаянц, короткометражка, комедия, 1963) [DVDRip, Н ...
  • Ведьма (Александр Абрамов, короткометражка, драма, 1958) [TVRip, Не требует ...
  • Как рождаются тосты (Всеволод Массино, Оскар Герц, Андрей Тутышкин, коротко ...
  • Информация
    Посетители, находящиеся в группе Гости, не могут оставлять комментарии к данной публикации.