вход на сайт

Имя пользователя :
Пароль :

Восстановление пароля Регистрация
Удача (Баадур Цуладзе, короткометражка, комедия, 1980) [TVRip, Профессиональный (полное дублирование)]
Рейтинг:
(голосов: 1)



[img]{THEME}/images/logopost.png[/img]



Удача

Год выпуска: 1980
Страна: СССР
Производство: Грузия-телефильм
Жанр: короткометражка, комедия

Режиссёр: Баадур Цуладзе
В ролях: Гиви Берикашвили, Баадур Цуладзе, Кахи Кавсадзе

Перевод: Профессиональный (полное дублирование)
Субтитры: Отсутствуют

Описание:
Баадур нашел на дороге лотерейный билет, выигравший автомобиль «Волга». Трепетное отношение к своей собственности очень сильно сказалось на отношениях с друзьми…


Дополнительно:
MediaInfo ▼Text
Общее
Полное имя :D:. РАЗДАЧАГрузия-фильмУдачаUdacha.1980.XviD.TVRip.avi
Формат :AVI
Размер :251 MiB
Продолжительность :00:17:38.880
Общий поток :1 985 Kbps

Видео
Идентификатор :0
Формат :MPEG-4 Visual
Профиль формата :Advanced [email protected]
Параметр BVOP формата :1
Параметр Qpel формата :No
Параметр GMC формата :0
Параметр Matrix формата :Default (MPEG)
Идентификатор кодека :XVID
Продолжительность :17mn 38s 880ms
Битрейт :1 783 Kbps
Ширина :704 pixels
Высота :528 pixels
Соотношение сторон :1.333
Частота кадров :25.000 fps
Глубина цвета :8 bits
Подвыборка цветности :4:2:0
Цветовое пространство :YUV
Тип развертки :Progressive
Бит/(Пиксели*Кадры) :0.192
Размер потока :225 MiB (90%)
Библиотека кодирования :XviD0050

Аудио #1
Идентификатор :1
Формат :AC-3
Формат/Информация :Audio Coding 3
Идентификатор кодека :2000
Продолжительность :00:17:38.848
Вид битрейта :Constant
Битрейт :192 Kbps
Канал(ы) :2 channels
Расположение каналов :Front: L R
Частота :48.0 KHz
Битовая глубина :16 bits
Метод сжатия :Lossy
Размер потока :24.2 MiB (10%)
Язык : cТех. данные:
Качество:TVRip
Продолжительность:00:17:30 час

Формат: AVI
Видео кодек: XviD
Аудио кодек: AC3
Видео: 704 x 528 (4:3), 25.000 fps, 1 783 Kbps, 0.192 bit/pixe
614741d493375f6a66647a73eb68e107dd72f77eУдача (Баадур Цуладзе, короткометражка, комедия, 1980) [TVRip, Профессиональный (полное дублирование)] Удача (Баадур Цуладзе, короткометражка, комедия, 1980) [TVRip, Профессиональный (полное дублирование)] " />

Аплоадер: Админ, дата: 8-12-2012, 20:17, торрент скачан: 359 раз

Понравилась раздача? Посмотрите эти:
  • Кукарача (Кети Долидзе, Сико Долидзе, драма, 1982) [DVDRip, Профессиональны ...
  • Девушка со швейной машинкой (Михаил Чиаурели, Георгий Шенгелая, комедия, 19 ...
  • Сапоги (Владимир Немоляев, короткометражка, драма, комедия, 1957) [DVDRip, ...
  • Яд в стакане / Illatos ut a semmibe (Йожеф Магияр, комедия, 1974) [TVRip, П ...
  • Печёнка (Арман Манарян, короткометражка, комедия, 1962) [DVDRip, Не требует ...
  • Субботний вечер / Shabat sagamo (Рамаз Шарабидзе, короткометражка, комедия, ...
  • Бабочка (Нелли Ненова, Гено Цулая, короткометражка, мелодрама, 1977) [TVRip ...
  • Термометр (Рамаз Шарабидзе, короткометражка, 1976) [TVRip, Профессиональный ...
  • Лимонный торт (Амиран Дарсавелидзе, Реваз Габриадзе, короткометражка, комед ...
  • Три жениха / Sami sasizo (Резо Чархалашвили, короткометражка, комедия, 1978 ...
  • Пари (Рамаз Шарабидзе, короткометражка, комедия, 1974) [TVRip, Профессионал ...
  • Покорители гор / Msvervalis dampkrobni (Амиран Дарсавелидзе, Реваз Габриадз ...
  • Три рубля / Sami maneti (Рамаз Шарабидзе, короткометражка, комедия, 1976) [ ...
  • Куда он денется! (Георгий Юнгвальд-Хилькевич, комедия, 1981) [DVDRip, Не тр ...
  • Я, бабушка, Илико и Илларион (Тенгиз Абуладзе, мелодрама, комедия, 1962) [D ...
  • Царская охота (2 части из 2) (Виталий Мельников, драма, история, 1990) [DVD ...
  • Приключения маленького Мука (Елизавета Кимягарова, мюзикл, семейный, 1983) ...
  • Короткометражные фильмы о весёлых приключениях трёх дорожных мастеров (Резо ...
  • Укрощение строптивого / Il bisbetico domato (Capital Film, комедия, 1980) [ ...
  • Трюкач / The Stunt Man (2 части из 2-х) (Ричард Раш, боевик, триллер, комед ...
  • Хозяин и слуга (Дмитрий Кесаянц, короткометражка, комедия, 1963) [DVDRip, Н ...
  • Языческая мадонна / A pogany madonna (Дьюла Месарош, комедия, криминал, 198 ...
  • Кафе–экспресс / Cafe Express (Нанни Лой, комедия, 1980) [DVDRip, Профессион ...
  • Ведьма (Александр Абрамов, короткометражка, драма, 1958) [TVRip, Не требует ...
  • Как рождаются тосты (Всеволод Массино, Оскар Герц, Андрей Тутышкин, коротко ...
  • Информация
    Посетители, находящиеся в группе Гости, не могут оставлять комментарии к данной публикации.