вход на сайт

Имя пользователя :
Пароль :

Восстановление пароля Регистрация
Лимонный торт (Амиран Дарсавелидзе, Реваз Габриадзе, короткометражка, комедия, 1977) [TVRip, Профессиональный (полное дублирование)]
Рейтинг:
(голосов: 1)



[img]{THEME}/images/logopost.png[/img]



Лимонный торт

Год выпуска: 1977
Страна: СССР
Производство: Грузия-телефильм
Жанр: короткометражка, комедия

Режиссёр: Амиран Дарсавелидзе, Реваз Габриадзе
В ролях: Кахи Кавсадзе, Гиви Берикашвили, Баадур Цуладзе, Дж. Грдзелишвили, Абессалом Лория, Зозо Бакрадзе, Давит Ломидзе, Шота Даушвили, Т. Данелия, Н. Бурджанадзе

Перевод: Профессиональный (полное дублирование)
Субтитры: Отсутствуют

Описание:
Попытка полакомиться на десерт лимонным тортом приводит друзей в вытрезвитель, после которого они попадают в бассейн с вином.


Дополнительно:
MediaInfo ▼Text
Общее
Полное имя :D:. РАЗДАЧАГрузия-фильмЛимонный тортLimonnyj.tort.1977.DivX.IPTVRip.avi
Формат :DivX
Размер :290 MiB
Продолжительность :00:16:52.920
Общий поток :2 403 Kbps

Видео
Идентификатор :0
Формат :MPEG-4 Visual
Параметр BVOP формата :2
Параметр Qpel формата :No
Параметр GMC формата :0
Параметр Matrix формата :Default (H.263)
Идентификатор кодека :DX50
Продолжительность :16mn 52s 920ms
Битрейт :2 266 Kbps
Ширина :720 pixels
Высота :544 pixels
Соотношение сторон :1.324
Частота кадров :25.000 fps
Глубина цвета :8 bits
Подвыборка цветности :4:2:0
Цветовое пространство :YUV
Тип развертки :Progressive
Бит/(Пиксели*Кадры) :0.231
Размер потока :274 MiB (94%)
Библиотека кодирования :DivX503b1977p

Аудио #1
Идентификатор :1
Формат :MPEG Audio
Идентификатор кодека :55
Продолжительность :00:16:52.920
Вид битрейта :Constant
Битрейт :128 Kbps
Канал(ы) :1 channel
Частота :48.0 KHz
Метод сжатия :Lossy
Размер потока :15.5 MiB (5%)Тех. данные:
Качество:TVRip
Продолжительность:00:16:50 час

Формат: AVI
Видео кодек: DivX
Аудио кодек: MPA1L3
Видео: 720 x 544 (4:3), 25.000 fps, 2 266 Kbps, 0.231 bit/pixel
Аудио : 48.0 KHz, , 1 channel (), 128 Kbps



4351cfc9f102031bd238d5987e8fce950609f919Лимонный торт (Амиран Дарсавелидзе, Реваз Габриадзе, короткометражка, комедия, 1977) [TVRip, Профессиональный (полное дублирование)] Лимонный торт (Амиран Дарсавелидзе, Реваз Габриадзе, короткометражка, комедия, 1977) [TVRip, Профессиональный (полное дублирование)] " />

Аплоадер: Админ, дата: 8-12-2012, 20:14, торрент скачан: 359 раз

Понравилась раздача? Посмотрите эти:
  • Наапет (Генрих Малян, драма, 1977) [DVDRip, Профессиональный (полное дублир ...
  • Девушка со швейной машинкой (Михаил Чиаурели, Георгий Шенгелая, комедия, 19 ...
  • Берега (7 частей из 7) (Гизо Габескирия, Гига Лордкипанидзе, боевик, драма, ...
  • Сказание о храбром витязе Фэт-Фрумосе (2 части из 2) (Влад Иовицэ, Николай ...
  • Сапоги (Владимир Немоляев, короткометражка, драма, комедия, 1957) [DVDRip, ...
  • Яд в стакане / Illatos ut a semmibe (Йожеф Магияр, комедия, 1974) [TVRip, П ...
  • Чудовище / LAnimal (Клод Зиди, комедия, 1977) [DVDRip, Профессиональный (по ...
  • Субботний вечер / Shabat sagamo (Рамаз Шарабидзе, короткометражка, комедия, ...
  • Бабочка (Нелли Ненова, Гено Цулая, короткометражка, мелодрама, 1977) [TVRip ...
  • Термометр (Рамаз Шарабидзе, короткометражка, 1976) [TVRip, Профессиональный ...
  • Удача (Баадур Цуладзе, короткометражка, комедия, 1980) [TVRip, Профессионал ...
  • Три жениха / Sami sasizo (Резо Чархалашвили, короткометражка, комедия, 1978 ...
  • Пари (Рамаз Шарабидзе, короткометражка, комедия, 1974) [TVRip, Профессионал ...
  • Покорители гор / Msvervalis dampkrobni (Амиран Дарсавелидзе, Реваз Габриадз ...
  • Три рубля / Sami maneti (Рамаз Шарабидзе, короткометражка, комедия, 1976) [ ...
  • Я, бабушка, Илико и Илларион (Тенгиз Абуладзе, мелодрама, комедия, 1962) [D ...
  • Приключения маленького Мука (Елизавета Кимягарова, мюзикл, семейный, 1983) ...
  • Короткометражные фильмы о весёлых приключениях трёх дорожных мастеров (Резо ...
  • Ведьма (Александр Абрамов, короткометражка, драма, 1958) [TVRip, Не требует ...
  • Как рождаются тосты (Всеволод Массино, Оскар Герц, Андрей Тутышкин, коротко ...
  • Информация
    Посетители, находящиеся в группе Гости, не могут оставлять комментарии к данной публикации.