вход на сайт

Имя пользователя :
Пароль :

Восстановление пароля Регистрация
Термометр (Рамаз Шарабидзе, короткометражка, 1976) [TVRip, Профессиональный (полное дублирование)]
Рейтинг:
(голосов: 1)



[img]{THEME}/images/logopost.png[/img]



Термометр

Год выпуска: 1976
Страна: СССР
Производство: Грузия-телефильм
Жанр: короткометражка

Режиссёр: Рамаз Шарабидзе
В ролях: Кахи Кавсадзе, Гиви Берикашвили, Баадур Цуладзе, Эроси Манджгаладзе, Абрек Пхаладзе

Перевод: Профессиональный (полное дублирование)
Субтитры: Отсутствуют

Описание:
Одна из новелл цикла комедийных короткометражных фильмов «дорога», рассказывающих о веселых приключениях трех дорожных мастеров, обладающих замечательными, самобытными характерами. Гигла симулирует болезнь, но вместо него в больницу попадают его друзья…


Дополнительно:
MediaInfo ▼Text
Общее
Полное имя :D:. РАЗДАЧАГрузия-фильмТермометрTermometr.1976.XviD.TVRip.avi
Формат :AVI
Размер :249 MiB
Продолжительность :00:18:49.120
Общий поток :1 853 Kbps
Библиотека кодирования :VirtualDub build 33790/release

Видео
Идентификатор :0
Формат :MPEG-4 Visual
Профиль формата :Advanced [email protected]
Параметр BVOP формата :1
Параметр Qpel формата :No
Параметр GMC формата :0
Параметр Matrix формата :Default (MPEG)
Идентификатор кодека :XVID
Продолжительность :18mn 49s 120ms
Битрейт :1 651 Kbps
Ширина :704 pixels
Высота :528 pixels
Соотношение сторон :1.333
Частота кадров :25.000 fps
Глубина цвета :8 bits
Подвыборка цветности :4:2:0
Цветовое пространство :YUV
Тип развертки :Progressive
Бит/(Пиксели*Кадры) :0.178
Размер потока :222 MiB (89%)
Библиотека кодирования :XviD0050

Аудио #1
Идентификатор :1
Формат :AC-3
Формат/Информация :Audio Coding 3
Идентификатор кодека :2000
Продолжительность :00:18:49.088
Вид битрейта :Constant
Битрейт :192 Kbps
Канал(ы) :2 channels
Расположение каналов :Front: L R
Частота :48.0 KHz
Битовая глубина :16 bits
Метод сжатия :Lossy
Размер потока :25.8 MiB (10%)Тех. данные:
Качество:TVRip
Продолжительность:00:18:40 час

Формат: AVI
64554c3f06e8f44e898b2510d2f7033b98fd347fТермометр (Рамаз Шарабидзе, короткометражка, 1976) [TVRip, Профессиональный (полное дублирование)] Термометр (Рамаз Шарабидзе, короткометражка, 1976) [TVRip, Профессиональный (полное дублирование)] " />

Аплоадер: Админ, дата: 8-12-2012, 20:11, торрент скачан: 359 раз

Понравилась раздача? Посмотрите эти:
  • Сигнальщик / The Signalman (Лоуренс Гордон Кларк, короткометражка, ужасы, ...
  • Кукарача (Кети Долидзе, Сико Долидзе, драма, 1982) [DVDRip, Профессиональны ...
  • Девушка со швейной машинкой (Михаил Чиаурели, Георгий Шенгелая, комедия, 19 ...
  • Древо желания (Тенгиз Абуладзе, драма, 1976) [DVDRip, Не требуется]
  • Яд в стакане / Illatos ut a semmibe (Йожеф Магияр, комедия, 1974) [TVRip, П ...
  • Пес Барбос и необычный кросс / Самогонщики / «Сто грамм» для храбрости (Лео ...
  • Субботний вечер / Shabat sagamo (Рамаз Шарабидзе, короткометражка, комедия, ...
  • Бабочка (Нелли Ненова, Гено Цулая, короткометражка, мелодрама, 1977) [TVRip ...
  • Лимонный торт (Амиран Дарсавелидзе, Реваз Габриадзе, короткометражка, комед ...
  • Удача (Баадур Цуладзе, короткометражка, комедия, 1980) [TVRip, Профессионал ...
  • Три жениха / Sami sasizo (Резо Чархалашвили, короткометражка, комедия, 1978 ...
  • Пари (Рамаз Шарабидзе, короткометражка, комедия, 1974) [TVRip, Профессионал ...
  • Покорители гор / Msvervalis dampkrobni (Амиран Дарсавелидзе, Реваз Габриадз ...
  • Три рубля / Sami maneti (Рамаз Шарабидзе, короткометражка, комедия, 1976) [ ...
  • Всё дело в брате (Валентин Горлов, семейный, 1976) [TVRip, Не требуется]
  • Русалочка (Владимир Бычков, мюзикл, фэнтези, мелодрама, семейный, 1976) [DV ...
  • Приключения маленького Мука (Елизавета Кимягарова, мюзикл, семейный, 1983) ...
  • Попугай, говорящий на идиш (Эфраим Севела, драма, комедия, приключения, вое ...
  • Короткометражные фильмы о весёлых приключениях трёх дорожных мастеров (Резо ...
  • Ведьма (Александр Абрамов, короткометражка, драма, 1958) [TVRip, Не требует ...
  • Информация
    Посетители, находящиеся в группе Гости, не могут оставлять комментарии к данной публикации.