вход на сайт

Имя пользователя :
Пароль :

Восстановление пароля Регистрация
Субботний вечер / Shabat sagamo (Рамаз Шарабидзе, короткометражка, комедия, 1975) [TVRip, Профессиональный (полное дублирование)]
Рейтинг:
(голосов: 1)



[img]{THEME}/images/logopost.png[/img]



Субботний вечер / Shabat sagamo

Год выпуска: 1975
Страна: СССР
Производство: Грузия-телефильм
Жанр: короткометражка, комедия

Режиссёр: Рамаз Шарабидзе
В ролях: Кахи Кавсадзе, Баадур Цуладзе, Гиви Берикашвили, Мери Давиташвили, А. Попова, Г. Никогосов, А. Косина, И. Дондарова, И. Шелест, Т. Калмыкова

Перевод: Профессиональный (полное дублирование)
Субтитры: Отсутствуют

Описание:
Друзья слегка поругались. После продолжительной пробежки по горам от разъяренного Кахи, попытались от него удрать на старом «горбатом Запорожце». Да не тут то было. Кахи догнал их, схватил несчастную машину сзади, поднял и держал.


Дополнительно:
MediaInfo ▼Text
Общее
Полное имя :D:. РАЗДАЧАГрузия-фильмСубботний вечерSubbotnij.vecher.1975.XviD.SATRip.avi
Формат :AVI
Размер :250 MiB
Продолжительность :00:22:39.440
Общий поток :1 544 Kbps

Видео
Идентификатор :0
Формат :MPEG-4 Visual
Профиль формата :Advanced [email protected]
Параметр BVOP формата :1
Параметр Qpel формата :No
Параметр GMC формата :0
Параметр Matrix формата :Default (MPEG)
Идентификатор кодека :XVID
Продолжительность :22mn 39s 440ms
Битрейт :1 342 Kbps
Ширина :704 pixels
Высота :528 pixels
Соотношение сторон :1.333
Частота кадров :25.000 fps
Глубина цвета :8 bits
Подвыборка цветности :4:2:0
Цветовое пространство :YUV
Тип развертки :Progressive
Бит/(Пиксели*Кадры) :0.144
Размер потока :217 MiB (87%)
Библиотека кодирования :XviD0050

Аудио #1
Идентификатор :1
Формат :AC-3
Формат/Информация :Audio Coding 3
Идентификатор кодека :2000
Продолжительность :00:22:39.424
Вид битрейта :Constant
Битрейт :192 Kbps
Канал(ы) :2 channels
Расположение каналов :Front: L R
Частота :48.0 KHz
Битовая глубина :16 bits
Метод сжатия :Lossy
Размер потока :31.1 MiB (12%)
Язык : cТех. данн
34414f201fa110b67d4d5f459a8593b1bde8741cСубботний вечер / Shabat sagamo (Рамаз Шарабидзе, короткометражка, комедия, 1975) [TVRip, Профессиональный (полное дублирование)] Субботний вечер / Shabat sagamo (Рамаз Шарабидзе, короткометражка, комедия, 1975) [TVRip, Профессиональный (полное дублирование)] " />

Аплоадер: Админ, дата: 8-12-2012, 20:05, торрент скачан: 359 раз

Понравилась раздача? Посмотрите эти:
  • Девушка со швейной машинкой (Михаил Чиаурели, Георгий Шенгелая, комедия, 19 ...
  • Голубые горы или неправдоподобная история (Эльдар Шенгелая, комедия, 1983) ...
  • Стрелы Робин Гуда (Сергей Тарасов, боевик, приключения, история, 1975) [DVD ...
  • Сапоги (Владимир Немоляев, короткометражка, драма, комедия, 1957) [DVDRip, ...
  • Драма (Герман Ливанов, короткометражка, комедия, 1960) [DVDRip, Не требуетс ...
  • Мульт-Салют. 5 ч. из 30: Ох и Ах/Слоненок и письмо/Возвращение блудного поп ...
  • Бабочка (Нелли Ненова, Гено Цулая, короткометражка, мелодрама, 1977) [TVRip ...
  • Термометр (Рамаз Шарабидзе, короткометражка, 1976) [TVRip, Профессиональный ...
  • Лимонный торт (Амиран Дарсавелидзе, Реваз Габриадзе, короткометражка, комед ...
  • Удача (Баадур Цуладзе, короткометражка, комедия, 1980) [TVRip, Профессионал ...
  • Три жениха / Sami sasizo (Резо Чархалашвили, короткометражка, комедия, 1978 ...
  • Пари (Рамаз Шарабидзе, короткометражка, комедия, 1974) [TVRip, Профессионал ...
  • Покорители гор / Msvervalis dampkrobni (Амиран Дарсавелидзе, Реваз Габриадз ...
  • Три рубля / Sami maneti (Рамаз Шарабидзе, короткометражка, комедия, 1976) [ ...
  • Я, бабушка, Илико и Илларион (Тенгиз Абуладзе, мелодрама, комедия, 1962) [D ...
  • Попугай, говорящий на идиш (Эфраим Севела, драма, комедия, приключения, вое ...
  • Короткометражные фильмы о весёлых приключениях трёх дорожных мастеров (Резо ...
  • Хозяин и слуга (Дмитрий Кесаянц, короткометражка, комедия, 1963) [DVDRip, Н ...
  • Братья по крови / Blutsbruder (Вернер В. Валльрот, драма, вестерн, 1975) [D ...
  • Как рождаются тосты (Всеволод Массино, Оскар Герц, Андрей Тутышкин, коротко ...
  • Информация
    Посетители, находящиеся в группе Гости, не могут оставлять комментарии к данной публикации.