вход на сайт

Имя пользователя :
Пароль :

Восстановление пароля Регистрация
Мы с Вулканом (Валентин Перов, детский, семейный, 1973) [TVRip, Не требуется]
Рейтинг:
(голосов: 1)



[img]{THEME}/images/logopost.png[/img]



Мы с Вулканом

Год выпуска: 1973
Страна: СССР
Производство: Беларусьфильм
Жанр: детский, семейный

Режиссёр: Валентин Перов
В ролях: Виталий Беляков, Людмила Кочка, Виктор Тарасов, Евгений Буренков, Валентина Березуцкая, Галина Рогачева, Оля Ваганова

Перевод: Не требуется
Субтитры: Отсутствуют

Описание:
О дружбе мальчика Таборки с собакой по кличке Вулкан и их приключениях. Мальчик живет в Бресте и его друзья играют в войну в Брестской цитадели, где живы отголоски Отечественной войны…


Дополнительно:
MediaInfo ▼Text
Общее
Полное имя :L:3.РаздачаМы с Вулканомmi_s_vulkanom.avi
Формат :AVI
Размер :980 MiB
Продолжительность :01:05:42.520
Общий поток :2 086 Kbps
Программа кодирования :VirtualDubMod 1.5.10.2 (build 2542/release)
Библиотека кодирования :VirtualDubMod build 2542/release

Видео
Идентификатор :0
Формат :MPEG-4 Visual
Параметр BVOP формата :1
Параметр Qpel формата :No
Параметр GMC формата :0
Параметр Matrix формата :Default (H.263)
Идентификатор кодека :DX50
Продолжительность :1h 5mn 42s 520ms
Битрейт :1 980 Kbps
Ширина :480 pixels
Высота :384 pixels
Соотношение сторон :1.250
Частота кадров :25.000 fps
Глубина цвета :8 bits
Подвыборка цветности :4:2:0
Цветовое пространство :YUV
Тип развертки :Progressive
Бит/(Пиксели*Кадры) :0.430
Размер потока :931 MiB (95%)
Библиотека кодирования :DivX503b1314p

Аудио #1
Идентификатор :1
Формат :MPEG Audio
Идентификатор кодека :55
Продолжительность :01:05:42.520
Вид битрейта :Constant
Битрейт :96.0 Kbps
Канал(ы) :1 channel
Частота :44.1 KHz
Метод сжатия :Lossy
Размер потока :45.1 MiB (5%)Тех. данные:
Качество:TVRip
Продолжительность:01:05:40 час

Формат: AVI
Видео кодек: DivX
Аудио кодек: MPA1L3
Видео: 480 x 384 (5:4), 25.000 fps, 1 980 Kbps, 0.430 bit/pixel
Аудио : 44.1 KHz, , 1 channel (), 96.0 Kbps



87be5cecd719f9b04a9360ae04253aad27ce803dМы с Вулканом (Валентин Перов, детский, семейный, 1973) [TVRip, Не требуется] Мы с Вулканом (Валентин Перов, детский, семейный, 1973) [TVRip, Не требуется] " />

Аплоадер: Админ, дата: 7-12-2012, 18:06, торрент скачан: 359 раз

Понравилась раздача? Посмотрите эти:
  • Открытая книга (Владимир Фетин, драма, биография, 1973) [DVDRip, Не требуе ...
  • Где это видано, где это слыхано (Валентин Горлов, короткометражка, комедия, ...
  • Чиполлино (Тамара Лисициан, семейный, 1973) [DVDRip, Не требуется]
  • Тайна горного подземелья (Лев Мирский, детский, приключения, 1975) [DVDRip, ...
  • Таинственная находка (Борис Бунеев, детский, приключения, 1954) [DVDRip, Не ...
  • Совсем пропащий (Георгий Данелия, приключения, 1973) [DVDRip, Не требуется] ...
  • Приключения Толи Клюквина (Виктор Эйсымонт, комедия, семейный, 1964) [DVDRi ...
  • Первоклассница (Илья Фрэз, детский, 1948) [DVDRip, Не требуется]
  • Анискин и Фантомас (2 части из 2) (Михаил Жаров, Владимир Рапопорт, комедия ...
  • Завтрак на траве (Николай Александрович, детский, комедия, 1979) [DVDRip, Н ...
  • Если есть паруса (Валентин Козачков, драма, 1969) [DVDRip, Не требуется]
  • Неисправимый лгун (Виллен Азаров, комедия, 1973) [DVDRip, Не требуется]
  • Мама (Элизабета Бостан, мюзикл, фэнтези, семейный, 1976) [DVDRip, Не требуе ...
  • Казаки-разбойники (Валентин Козачков, детский, приключения, 1979) [DVDRip, ...
  • Фантазеры (Исаак Магитон, И. Сафарова, детский, 1965) [DVDRip, Не требуется ...
  • "Тигры" на льду (Валентин Козачков, Альберт Осипов, детский, комедия, спорт ...
  • Шторм на суше (Эдуард Бочаров, детский, 1975) [TVRip, Не требуется]
  • Всё дело в брате (Валентин Горлов, семейный, 1976) [TVRip, Не требуется]
  • Раннее, раннее утро... (3 части из 3) (Валерий Харченко, семейный, 1983) [T ...
  • Приключения маленького папы (Дмитрий Крупко, детский, комедия, 1979) [DVDRi ...
  • Умные вещи (2 части из 2) (Анатолий Граник, детский, семейный, 1973) [DVDRi ...
  • Приключения маленького Мука (Елизавета Кимягарова, мюзикл, семейный, 1983) ...
  • Гарем Степана Гуслякова (Алишер Хамдамов, драма, 1989) [TVRip, Не требуетс ...
  • За облаками – небо (Юрий Егоров, драма, 1973) [DVDRip, Не требуется]
  • Медведи и я / The Bears and I (Бернард МакЭвети, драма, семейный, 1974) [DV ...
  • Информация
    Посетители, находящиеся в группе Гости, не могут оставлять комментарии к данной публикации.