вход на сайт

Имя пользователя :
Пароль :

Восстановление пароля Регистрация
Игра на миллионы (Геннадий Байсак, комедия, криминал, приключения, 1991) [TVRip, Не требуется]
Рейтинг:
(голосов: 1)



[img]{THEME}/images/logopost.png[/img]



Игра на миллионы

Год выпуска: 1991
Страна: СССР
Производство: Студия Горького, Ладья, Пирамида
Жанр: комедия, криминал, приключения

Режиссёр: Геннадий Байсак
В ролях: Сергей Габриэлян, Анна Назарьева, Алексей Петренко, Валерий Баринов, Владимир Долинский, Александр Демьяненко, Олег Шкловский, Роман Мадянов, Владимир Гранов, Александр Грунда

Перевод: Не требуется
Субтитры: Отсутствуют

Описание:
Две шайки профессиональных рэкетиров занимаются грабежом сберкасс в небольшом курортном городе, конкурируя друг с другом и не подозревая, что работают на одного хозяина.

И тем и другим мешает ветеринар Максимкин. Влюбленный в Люсю супермен берет кассу одну за другой, будучи уверен в том, что только он один может сделать Люсю счастливой.


Дополнительно:
MediaInfo ▼Text
Общее
Полное имя :D:. РАЗДАЧАИгра на миллионыИгра на миллионы.1991.avi
Формат :AVI
Размер :696 MiB
Продолжительность :01:35:48.720
Общий поток :1 015 Kbps
Программа кодирования :VirtualDubMod 1.5.10.2 (build 2540/release)
Библиотека кодирования :VirtualDubMod build 2540/release

Видео
Идентификатор :0
Формат :MPEG-4 Visual
Профиль формата :Advanced [email protected]
Параметр BVOP формата :2
Параметр Qpel формата :No
Параметр GMC формата :0
Параметр Matrix формата :Default (H.263)
Идентификатор кодека :XVID
Продолжительность :1h 35mn 48s 720ms
Битрейт :926 Kbps
Ширина :512 pixels
Высота :384 pixels
Соотношение сторон :1.333
Частота кадров :25.000 fps
Глубина цвета :8 bits
Подвыборка цветности :4:2:0
Цветовое пространство :YUV
Тип развертки :Progressive
Бит/(Пиксели*Кадры) :0.188
Размер потока :634 MiB (91%)
Библиотека кодирования :XviD0047

Аудио #1
Идентификатор :1
Формат :MPEG Audio
Идентификатор кодека :55
Продолжительность :01:35:48.675
Вид битрейта :Constant
Битрейт :80.0 Kbps
Канал(ы) :2 channels
Частота :44.1 KHz
Метод сжатия :Lossy
Размер потока :54.8 MiB (8%)Тех. данные:
Качество:&
47faf331b51a1cd695ce381c04c5f9a2d4fe7eb7Игра на миллионы (Геннадий Байсак, комедия, криминал, приключения, 1991) [TVRip, Не требуется] Игра на миллионы (Геннадий Байсак, комедия, криминал, приключения, 1991) [TVRip, Не требуется] " />

Аплоадер: Админ, дата: 7-12-2012, 17:30, торрент скачан: 359 раз

Понравилась раздача? Посмотрите эти:
  • Божья тварь (Галина Данелия-Юркова, комедия, 1991) [DVDRip, Не требуется]
  • Акваланги на дне (Евгений Шерстобитов, боевик, приключения, семейный, 1965) ...
  • Таинственная находка (Борис Бунеев, детский, приключения, 1954) [DVDRip, Не ...
  • Призрак (Никита Орлов, боевик, триллер, 1991) [TVRip, Не требуется]
  • Расстанемся - пока хорошие (Владимир Мотыль, мелодрама, приключения, 1991) ...
  • Пакет (Владимир Назаров, комедия, приключения, семейный, 1965) [DVDRip, Не ...
  • Ой, вы, гуси... (Лидия Боброва, Драма, 1991) [DVDRip, Не требуется]
  • Ночные забавы (2 части из 2. Реставрирован) (Владимир Краснопольский, Валер ...
  • Миллионы Ферфакса (Николай Ильинский, криминал, детектив, 1980) [DVDRip, Не ...
  • Маленький гигант большого секса (Николай Досталь, Комедия, 1992) [DVDRip, Н ...
  • Князь Удача Андреевич (Геннадий Байсак, комедия, криминал, семейный, 1989) ...
  • Капитанская дочка (Владимир Каплуновский, драма, 1958) [DVDRip, Не требуетс ...
  • Пустыня (Михаил Кац, драма, 1991) [TVRip, Не требуется]
  • Трактир на Пятницкой (Александр Файнциммер, криминал, детектив, 1977) [DVDR ...
  • Не имей 100 рублей... (Геннадий Казанский, комедия, 1959) [TVRip, Не требуе ...
  • Царь Иван Грозный (2 части из 2) (Геннадий Васильев, Драма, история, 1991) ...
  • В. Давыдов и Голиаф // Покушение // Рыпкина любовь (Сборник короткометражны ...
  • Я вас любил... (Илья Фрэз, мелодрама, комедия, 1967) [DVDRip, Не требуется] ...
  • У меня есть лев (2 части из 2) (Константин Бромберг, драма, комедия, приклю ...
  • Приключения маленького папы (Дмитрий Крупко, детский, комедия, 1979) [DVDRi ...
  • Оглашению не подлежит (Хасан Бакаев, драма, 1987) [TVRip, Не требуется]
  • Князь Удача Андреевич (Геннадий Байсак, комедия, семейный, криминал, 1989 г ...
  • Гений (2 части из 2) (Виктор Сергеев, Комедия, криминал, 1991) [DVDRip, Не ...
  • Дикое поле (Николай Гусаров, боевик, 1991) [DVDRip, Не требуется]
  • Как рождаются тосты (Всеволод Массино, Оскар Герц, Андрей Тутышкин, коротко ...
  • Информация
    Посетители, находящиеся в группе Гости, не могут оставлять комментарии к данной публикации.