вход на сайт

Имя пользователя :
Пароль :

Восстановление пароля Регистрация
Сорок первый (Яков Протазанов, драма, военный, 1926) [TVRip, Немое кино, Субтитры: Rus. (Оригинал)]
Рейтинг:
(голосов: 1)



[img]{THEME}/images/logopost.png[/img]



Сорок первый

Год выпуска: 1926
Страна: СССР
Производство: МЕЖРАБПОМ-РУСЬ
Жанр: драма, военный

Режиссёр: Яков Протазанов
В ролях: Иван Коваль-Самборский, Ада Войцик, Иван Штраух

Перевод: Немое кино с современным музыкальным сопровождением
Субтитры: Русские (оригинальные)

Описание:
Действие происходит в районе Каспийского моря в годы Гражданской войны. Девушка-снайпер из Красной армии оказалась на уединенном острове вместе с белым офицером, в которого она влюбилась и которому суждено стать ее сорок первой жертвой.


Дополнительно:
MediaInfo ▼Text
Общее
Полное имя :J:Сорок первый.1926Sorok.Pervyi.1926.avi
Формат :AVI
Размер :750 MiB
Продолжительность :00:52:44.960
Общий поток :1 988 Kbps
Программа кодирования :VirtualDubMod 1.5.4.1 (build 2178/release)
Библиотека кодирования :VirtualDubMod build 2178/release

Видео
Идентификатор :0
Формат :MPEG-4 Visual
Профиль формата :Advanced [email protected]
Параметр BVOP формата :1
Параметр Qpel формата :No
Параметр GMC формата :0
Параметр Matrix формата :Custom
Идентификатор кодека :XVID
Продолжительность :52mn 44s 960ms
Битрейт :1 853 Kbps
Ширина :576 pixels
Высота :432 pixels
Соотношение сторон :1.333
Частота кадров :25.000 fps
Глубина цвета :8 bits
Подвыборка цветности :4:2:0
Цветовое пространство :YUV
Тип развертки :Progressive
Бит/(Пиксели*Кадры) :0.298
Размер потока :699 MiB (93%)
Библиотека кодирования :XviD0064

Аудио #1
Идентификатор :1
Формат :MPEG Audio
Идентификатор кодека :55
Продолжительность :00:52:44.952
Вид битрейта :Constant
Битрейт :128 Kbps
Канал(ы) :2 channels
Частота :48.0 KHz
Метод сжатия :Lossy
Размер потока :48.3 MiB (6%)



Тех. данные:
Качество:TVRip
Продолжительность:00:52:40 час

Формат: AVI
Видео кодек: XviD
Аудио кодек: MPA1L3
Видео: 576 x 432 (4:3), 25.000 fps, 1 853 Kbps, 0.298 bit/pixel
Аудио : 48.0 KHz, , 2 channels (), 128 Kbps



cd7eb3cf8fe54e891530724af323ef87fea3e0caСорок первый (Яков Протазанов, драма, военный, 1926) [TVRip, Немое кино, Субтитры: Rus. (Оригинал)] Сорок первый (Яков Протазанов, драма, военный, 1926) [TVRip, Немое кино, Субтитры: Rus. (Оригинал)] " />

Аплоадер: Админ, дата: 14-01-2013, 05:33, торрент скачан: 359 раз

Понравилась раздача? Посмотрите эти:
  • Эта земля моя / This Land Is Mine (Жан Ренуар, драма, военный, 1943) [DVDRi ...
  • Паровоз «Генерал» / The General (Бастер Китон, Клайд Брукман, боевик, комед ...
  • Летят журавли (Михаил Калатозов, драма, мелодрама, военный, 1957) [DVDRip, ...
  • Дневной поезд (Инесса Селезнева, драма, 1976) [DVDRip, Не требуется]
  • Яблоки сорок первого года (Равиль Батыров, драма, 1969) [DVDRip, Не требует ...
  • Комиссар (Александр Аскольдов, драма, военный, 1967) [DVDRip, Не требуется] ...
  • Насреддин в Бухаре (Nasreddin v Bukhare) (Яков Протазанов, мелодрама, комед ...
  • Повесть о «Неистовом» (Борис Бабочкин, драма, военный, 1947) [DVDRip, Перев ...
  • Родина зовет (Александр Мачерет, военный, 1936) [DVDRip, Не требуется]
  • Пиковая дама (Яков Протазанов, немое кино, ужасы, фэнтези, драма, 1916) [DV ...
  • Цирк / The Circus (Чарльз Чаплин, драма, мелодрама, комедия, семейный, 1928 ...
  • Воюющий дворецкий / Battling Butler (Бастер Китон, комедия, 1926) [BDRip 72 ...
  • Стачка (Сергей Эйзенштейн, драма, 1925) [BDRip 720p, не требуется (немое ки ...
  • Славный малый (Борис Барнет, военный, 1943) [DVDRip, Не требуется]
  • Праздник святого Йоргена (Яков Протазанов, комедия, 1930) [DVDRip, Професси ...
  • 20000 лье под водой / 20000 Leagues Under the Sea (Стюарт Патон, фантастика ...
  • Немое кино / Silent Movie (Мел Брукс, комедия, 1976) [DVDRip, Авторский (од ...
  • Первый правитель / Gniazdo (Ян Рыбковский, драма, история, 1974) [DVDRip, П ...
  • Болотные солдаты (Александр Мачерет, драма, военный, 1938) [DVDRip, Не треб ...
  • Р.В.С. (Алексей Мороз, военный, 1977) [DVDRip, (2х)Оригинал (русский)]
  • Информация
    Посетители, находящиеся в группе Гости, не могут оставлять комментарии к данной публикации.