вход на сайт

Имя пользователя :
Пароль :

Восстановление пароля Регистрация
Подарок чёрного колдуна (Борис Рыцарев, фэнтези, приключения, семейный, 1978) [DVDRip, Не требуется]
Рейтинг:
(голосов: 1)



[img]{THEME}/images/logopost.png[/img]



Подарок чёрного колдуна

Год выпуска: 1978
Страна: СССР
Производство: Студия Горького
Жанр: фэнтези, приключения, семейный

Режиссёр: Борис Рыцарев
В ролях: Елена Кондратьева, Борис Щербаков, Лариса Данилина, Лия Ахеджакова, Виктор Сергачев, Алексей Чернов, Евгений Гуров, Лев Круглый, Светлана Орлова, Алексей Дроздов

Перевод: Не требуется
Субтитры: Отсутствуют

Описание:
Когда еще Василиса была маленькая, черный колдун принес ее матери зловещий подарок — сундучок с заколдованным свадебным платьем. Надев его, Василиса могла загадать желание, и оно непременно бы исполнилось. Однажды девушка приревновала кузнеца Ивана, и его глаза перестали видеть. Василисе пришлось пройти испытания и строго выполнить наказ колдуна, чтобы вернуть зрение Ивану.


Дополнительно:
MediaInfo ▼Text
Общее
Полное имя :J:Подарок чёрного колдунаPodarok chernogo kolduna.avi
Формат :AVI
Размер :741 MiB
Продолжительность :00:59:57.760
Общий поток :1 728 Kbps
Программа кодирования :VirtualDubMod 1.5.10.2 (build 2540/release)
Библиотека кодирования :VirtualDubMod build 2540/release

Видео
Идентификатор :0
Формат :MPEG-4 Visual
Профиль формата :Advanced [email protected]
Параметр BVOP формата :2
Параметр Qpel формата :No
Параметр GMC формата :0
Параметр Matrix формата :Default (H.263)
Идентификатор кодека :XVID
Продолжительность :59mn 57s 760ms
Битрейт :1 590 Kbps
Ширина :656 pixels
Высота :368 pixels
Соотношение сторон :1.783
Частота кадров :25.000 fps
Глубина цвета :8 bits
Подвыборка цветности :4:2:0
Цветовое пространство :YUV
Тип развертки :Progressive
Бит/(Пиксели*Кадры) :0.263
Размер потока :682 MiB (92%)
Библиотека кодирования :XviD0050

Аудио #1
Идентификатор :1
Формат :MPEG Audio
Идентификатор кодека :55
Продолжительность :00:59:57.384
Вид битрейта :Constant
Битрейт :128 Kbps
Канал(ы) :2 channels
Частота :48.0 KHz
Метод сжатия :Lossy
Размер потока :54.9 MiB (7%)



Тех. данные:
Качество:DVDRip
Продолжите
a568359d1435346421993639c40f0fdaf32d5c0cПодарок чёрного колдуна (Борис Рыцарев, фэнтези, приключения, семейный, 1978) [DVDRip, Не требуется] Подарок чёрного колдуна (Борис Рыцарев, фэнтези, приключения, семейный, 1978) [DVDRip, Не требуется] " />

Аплоадер: Админ, дата: 14-01-2013, 05:06, торрент скачан: 359 раз

Понравилась раздача? Посмотрите эти:
  • Вертикаль (Борис Дуров, Станислав Говорухин, приключения, 1966) [DVDRip, Не ...
  • Аленка (Борис Барнет, комедия, 1961) [DVDRip, Не требуется]
  • Акваланги на дне (Евгений Шерстобитов, боевик, приключения, семейный, 1965) ...
  • Волны Черного моря (8 частей из 8) (Артур Войтецкий, Олег Гойда, Вячеслав К ...
  • Таинственная находка (Борис Бунеев, детский, приключения, 1954) [DVDRip, Не ...
  • Рыжик (Илья Фрэз, приключения, семейный, 1960) [DVDRip, Не требуется]
  • Приключения Толи Клюквина (Виктор Эйсымонт, комедия, семейный, 1964) [DVDRi ...
  • Пакет (Владимир Назаров, комедия, приключения, семейный, 1965) [DVDRip, Не ...
  • Деревня Утка (Борис Бунеев, семейный, 1976) [DVDRip, Не требуется]
  • Иван да Марья (Борис Рыцарев, фэнтези, мелодрама, комедия, семейный, музыка ...
  • Князь Игорь (Роман Тихомиров, мюзикл, приключения, 1969) [DVDRip, Не требуе ...
  • Пропавшая грамота (Борис Ивченко, фэнтези, комедия, 1972) [DVDRip, Професси ...
  • Мульт-Салют. 7 ч. из 30: Приключения Буратино/Чиполлино (Иван Иванов-Вано, ...
  • Печники (Виктор Храмов, драма, 1982) [DVDRip, Не требуется]
  • Славный малый (Борис Барнет, военный, 1943) [DVDRip, Не требуется]
  • Приключения желтого чемоданчика (Илья Фрэз, комедия, семейный, 1970) [DVDRi ...
  • Степанова памятка (Константин Ершов, фэнтези, 1976) [DVDRip, Не требуется]
  • Сказка о царе Салтане (Александр Птушко, фэнтези, семейный, 1967) [DVDRip, ...
  • Ученик лекаря (Борис Рыцарев, комедия, семейный, история, 1986) [DVDRip, Не ...
  • Пока безумствует мечта (Юрий Горковенко, комедия, приключения, 1978) [DVDRi ...
  • Принцесса на горошине (Борис Рыцарев, фэнтези, семейный, 1976) [DVDRip-AVC, ...
  • Таинственный остров / Остров приключений / Mysterious Island (Сай Эндфилд, ...
  • Возвращение черного скакуна / The Black Stallion Returns (Роберт Далва, при ...
  • Драгоценный подарок (Александр Роу, семейный, 1956) [DVDRip, Не требуется]
  • Целуются зори (Сергей Никоненко, комедия, 1978) [DVDRip, Не требуется]
  • Информация
    Посетители, находящиеся в группе Гости, не могут оставлять комментарии к данной публикации.