вход на сайт

Имя пользователя :
Пароль :

Восстановление пароля Регистрация
Повесть о человеческом сердце (3 части из 3) (Даниил Храбровицкий, мелодрама, 1975) [SATRip, Не требуется]
Рейтинг:
(голосов: 1)



[img]{THEME}/images/logopost.png[/img]



Повесть о человеческом сердце (3 части из 3)

Год выпуска: 1975
Страна: СССР
Производство: Мосфильм
Жанр: мелодрама

Режиссёр: Даниил Храбровицкий
В ролях: Виктор Хохряков, Наталья Храбровицкая, Ефим Копелян, Елена Козелькова, Кирилл Лавров, Андрей Попов, Любовь Соколова, Владислав Стржельчик, Вячеслав Тихонов, Пётр Вельяминов

Перевод: Не требуется
Субтитры: Отсутствуют

Описание:
Делая очередную операцию, профессор Крымов и не предполагал, какое место в его жизни займет эта пациентка. Через некоторое время, они случайно встретятся в Ялте и поймут, что очень нужны друг другу. Только отношение к любви у них совсем разное…


Дополнительно:
MediaInfo ▼Text
"1 часть" ▼Общее
Полное имя :K:Повесть о человеческом сердцеPovest`1.avi
Формат :AVI
Размер :493 MiB
Продолжительность :00:49:40.640
Общий поток :1 388 Kbps
Библиотека кодирования :VirtualDub build 27700/release

Видео
Идентификатор :0
Формат :MPEG-4 Visual
Параметр BVOP формата :1
Параметр Qpel формата :No
Параметр GMC формата :0
Параметр Matrix формата :Default (H.263)
Идентификатор кодека :DX50
Продолжительность :49mn 40s 640ms
Битрейт :1 251 Kbps
Ширина :720 pixels
Высота :288 pixels
Соотношение сторон :2.500
Частота кадров :25.000 fps
Глубина цвета :8 bits
Подвыборка цветности :4:2:0
Цветовое пространство :YUV
Тип развертки :Progressive
Бит/(Пиксели*Кадры) :0.241
Размер потока :444 MiB (90%)
Библиотека кодирования :DivX503b1338p

Аудио #1
Идентификатор :1
Формат :MPEG Audio
Идентификатор кодека :55
Продолжительность :00:49:40.543
Вид битрейта :Constant
Битрейт :128 Kbps
Канал(ы) :2 channels
Частота :44.1 KHz
Метод сжатия :Lossy
Размер потока :45.5 MiB (9%)

"2 часть" ▼Общее
Полное имя :K:Повесть о человеческом сердцеPovest`2.avi
Формат :AVI
Размер :501 MiB
Продолжи
255eb1ad20f945c25f7f3c3193b7b272992564a3Повесть о человеческом сердце (3 части из 3) (Даниил Храбровицкий, мелодрама, 1975) [SATRip, Не требуется] Повесть о человеческом сердце (3 части из 3) (Даниил Храбровицкий, мелодрама, 1975) [SATRip, Не требуется] " />

Аплоадер: Админ, дата: 14-01-2013, 05:03, торрент скачан: 359 раз

Понравилась раздача? Посмотрите эти:
  • Геркус Мантас (2 части из 2) (Марионас Гедрис, драма, 1972) [SATRip, Профес ...
  • Дни хирурга Мишкина (3 части из 3) (Вадим Зобин, драма, 1967) [DVDRip, Не т ...
  • Ошибка резидента (2 части из 2) (Вениамин Дорман, детектив, 1968) [DVDRip, ...
  • Судьба резидента (2 части из 2) (Вениамин Дорман, детектив, приключения, 19 ...
  • Возвращение резидента (2 части из 2) (Вениамин Дорман, триллер, 1982) [DVDR ...
  • Отпуск за свой счет (2 части из 2) (Виктор Титов, мелодрама, комедия, 1981) ...
  • Мир дому твоему (2 части из 2) (Константин Райкин, Аркадий Райкин, Марк Орл ...
  • Макар-следопыт (3 части из 3) (Николай Ковальский, семейный, 1984) [DVDRip, ...
  • Люди и манекены (4 части из 4) (Виктор Храмов, Аркадий Райкин, комедия, 197 ...
  • Дон Сезар де Базан (2 части из 2) (Ян Фрид, мюзикл, комедия, 1989) [DVDRip, ...
  • Старший сын (2 части из 2) (Виталий Мельников, драма, 1975) [DVDRip, Не тре ...
  • Звезда пленительного счастья (2 части из 2) (Владимир Мотыль, драма, мелодр ...
  • Объяснение в любви (2 части из 2) (Илья Авербах, мелодрама, 1977) [DVDRip, ...
  • Морской волк (4 части из 4) (Игорь Апасян, драма, мелодрама, приключения, 1 ...
  • Степь (2 части из 2) (Сергей Бондарчук, драма, история, 1977) [DVDRip, Не т ...
  • Сибириада (4 части из 4) (Андрей Кончаловский, драма, военный, история, 197 ...
  • Ханума (2 части из 2) (Георгий Товстоногов, мюзикл, комедия, 1978) [DVDRip, ...
  • Сердце Бонивура (4 части из 4) (Марк Орлов, история, 1969) [TVRip, Не требу ...
  • Почти смешная история (2 части из 2) (Петр Фоменко, мелодрама, комедия, 197 ...
  • Тихий Дон (3 части из 3) (Сергей Герасимов, драма, военный, 1957) [DVDRip, ...
  • Подпольный обком действует (4 части из 4) (Анатолий Буковский, военный, 197 ...
  • В лесах под Ковелем (3 части из 3) (Юрий Тупицкий, военный, история, 1984) ...
  • Гений (2 части из 2) (Виктор Сергеев, Комедия, криминал, 1991) [DVDRip, Не ...
  • Дядюшкин сон (2 части из2) (Александр Орлов, драма, комедия, 1981) [DVDRip, ...
  • Пропавшая экспедиция (2 части из 2) (Вениамин Дорман, драма, детектив, прик ...
  • Информация
    Посетители, находящиеся в группе Гости, не могут оставлять комментарии к данной публикации.