вход на сайт

Имя пользователя :
Пароль :

Восстановление пароля Регистрация
Печники (Виктор Храмов, драма, 1982) [DVDRip, Не требуется]
Рейтинг:
(голосов: 1)



[img]{THEME}/images/logopost.png[/img]



Печники

Год выпуска: 1982
Страна: СССР
Производство: ТО Экран
Жанр: драма

Режиссёр: Виктор Храмов
В ролях: Николай Бурляев, Евдокия Германова, Людмила Крылова, Инна Макарова, Борис Новиков, Александр Соколов, Олег Табаков, Светлана Дирина, Владимир Кашпур, Алексей Кудинович

Перевод: Не требуется
Субтитры: Отсутствуют

Описание:
По мотивам рассказов Александра Твардовского «Погляжу, какой ты милый», «Возвращение», «Печники».


Дополнительно:
MediaInfo ▼Text
Общее
Полное имя :L:ПечникиPechniki.1982.DVDRip.avi
Формат :AVI
Размер :1.46 GiB
Продолжительность :01:18:32.880
Общий поток :2 664 Kbps
Программа кодирования :VirtualDubMod 1.5.10.2 (build 2540/release)
Библиотека кодирования :VirtualDubMod build 2540/release

Видео
Идентификатор :0
Формат :MPEG-4 Visual
Профиль формата :Advanced [email protected]
Параметр BVOP формата :1
Параметр Qpel формата :No
Параметр GMC формата :0
Параметр Matrix формата :Default (MPEG)
Идентификатор кодека :XVID
Продолжительность :1h 18mn 32s 880ms
Битрейт :2 271 Kbps
Ширина :688 pixels
Высота :528 pixels
Соотношение сторон :1.303
Частота кадров :25.000 fps
Глубина цвета :8 bits
Подвыборка цветности :4:2:0
Цветовое пространство :YUV
Тип развертки :Progressive
Бит/(Пиксели*Кадры) :0.250
Размер потока :1.25 GiB (85%)
Библиотека кодирования :XviD0047

Аудио #1
Идентификатор :1
Формат :AC-3
Формат/Информация :Audio Coding 3
Идентификатор кодека :2000
Продолжительность :01:18:32.480
Вид битрейта :Constant
Битрейт :384 Kbps
Канал(ы) :2 channels
Расположение каналов :Front: L R
Частота :48.0 KHz
Битовая глубина :16 bits
Метод сжатия :Lossy
Размер потока :216 MiB (14%)



Тех. данные:
Качество:DVDRip
Продолжительность:01:18:30 час

Формат: AVI
Видео кодек: XviD
Аудио кодек: AC3
Видео: 688 x 528 (4:3)
e96261021836ada33226a8cfb5ed0098830f40d8Печники (Виктор Храмов, драма, 1982) [DVDRip, Не требуется] Печники (Виктор Храмов, драма, 1982) [DVDRip, Не требуется] " />

Аплоадер: Админ, дата: 14-01-2013, 04:50, торрент скачан: 359 раз

Понравилась раздача? Посмотрите эти:
  • Бой под Соколом (Александр Разумный, военный, 1942) [DVDRip, Не требуется]
  • Возвращение резидента (2 части из 2) (Вениамин Дорман, триллер, 1982) [DVDR ...
  • Люди и манекены (4 части из 4) (Виктор Храмов, Аркадий Райкин, комедия, 197 ...
  • Кукарача (Кети Долидзе, Сико Долидзе, драма, 1982) [DVDRip, Профессиональны ...
  • Каштанка (Роман Балаян, приключения, 1975) [DVDRip, Не требуется]
  • Казачья застава (Виктор Живолуб, драма, 1982) [DVDRip, Не требуется]
  • Инспектор ГАИ (Эльдор Уразбаев, драма, 1982) [DVDRip, Не требуется]
  • Гикор (Сергей Исраелян, драма, семейный, 1982) [DVDRip, Профессиональный (п ...
  • Путевка в Жизнь (Николай Экк, драма, 1931) [DVDRip, Не требуется]
  • Приключения Толи Клюквина (Виктор Эйсымонт, комедия, семейный, 1964) [DVDRi ...
  • Покровские ворота (2 части из 2) (Михаил Козаков, мюзикл, драма, мелодрама, ...
  • Иван да Марья (Борис Рыцарев, фэнтези, мелодрама, комедия, семейный, музыка ...
  • Если есть паруса (Валентин Козачков, драма, 1969) [DVDRip, Не требуется]
  • Ослиная шкура (Надежда Кошеверова, фэнтези, мелодрама, комедия, семейный, 1 ...
  • Князь Игорь (Роман Тихомиров, мюзикл, приключения, 1969) [DVDRip, Не требуе ...
  • Капитанская дочка (Владимир Каплуновский, драма, 1958) [DVDRip, Не требуетс ...
  • Пиковая дама (Игорь Масленников, драма, 1982) [DVDRip, Не требуется]
  • Четвертый перископ (Виктор Эйсымонт, приключения, 1942) [DVDRip, Не требует ...
  • Трест, который лопнул (3 части из 3) (Александр Павловский, мюзикл, комедия ...
  • Спортлото-82 (Леонид Гайдай, комедия, приключения, 1982) [DVDRip, Не требуе ...
  • Славный малый (Борис Барнет, военный, 1943) [DVDRip, Не требуется]
  • Уходя - уходи (Виктор Трегубович, комедия, 1978) [DVDRip, Не требуется]
  • Кутузов (Владимир Петров, драма, 1943) [DVDRip, Не требуется]
  • В добрый час! (Виктор Эйсымонт, драма, мелодрама, 1956) [DVDRip, Не требует ...
  • Двенадцатая ночь (Олег Табаков, Виктор Храмов, комедия, 1978) [DVDRip-AVC, ...
  • Информация
    Посетители, находящиеся в группе Гости, не могут оставлять комментарии к данной публикации.