вход на сайт

Имя пользователя :
Пароль :

Восстановление пароля Регистрация
Суд (Аида Манасарова, Владимир Скуйбин, драма, детектив, 1963) [DVDRip, Не требуется]
Рейтинг:
(голосов: 1)



[img]{THEME}/images/logopost.png[/img]



Суд

Год выпуска: 1963
Страна: СССР
Производство: Мосфильм
Жанр: драма, детектив

Режиссёр: Аида Манасарова, Владимир Скуйбин
В ролях: Анатолий Чемодуров, Виктор Кольцов, Степан Крылов, Николай Крючков, Валентина Теличкина, Олег Жаков, Константин Лылов, Валентина Ананьина

Перевод: Не требуется
Субтитры: Отсутствуют

Описание:
Трое охотились на медведя, но вместо него оказался случайно убит человек. Следствие должно определить, кто именно из охотников в ответе за эту смерть, суд установит меру наказания. Однако есть еще и суд над самим собой, суд совести…


Дополнительно:
MediaInfo ▼Text
Общее
Полное имя :J:СудSud.avi
Формат :AVI
Размер :1.12 GiB
Продолжительность :01:11:08.000
Общий поток :2 262 Kbps
Программа кодирования :Lavf52.78.5

Видео
Идентификатор :0
Формат :MPEG-4 Visual
Профиль формата :[email protected]
Параметр BVOP формата :No
Параметр Qpel формата :No
Параметр GMC формата :0
Параметр Matrix формата :Default (H.263)
Идентификатор кодека :FMP4
Продолжительность :1h 11mn 8s 0ms
Битрейт :2 118 Kbps
Ширина :720 pixels
Высота :568 pixels
Соотношение сторон :1.268
Частота кадров :25.000 fps
Глубина цвета :8 bits
Подвыборка цветности :4:2:0
Цветовое пространство :YUV
Тип развертки :Progressive
Бит/(Пиксели*Кадры) :0.207
Размер потока :1.05 GiB (94%)
Библиотека кодирования :Lavc52.91.1

Аудио #1
Идентификатор :1
Формат :MPEG Audio
Идентификатор кодека :55
Продолжительность :00:08:38.640
Вид битрейта :Constant
Битрейт :128 Kbps
Канал(ы) :2 channels
Частота :48.0 KHz
Метод сжатия :Lossy
Размер потока :7.91 MiB (1%)



Тех. данные:
Качество:DVDRip
Продолжительность:01:11:00 час

Формат: AVI
Видео кодек: Lavc
Аудио кодек: MPA1L3
Видео: 720 x 568 (5:4), 25.000 fps, 2 118 Kbps, 0.207 bit/pixel
Аудио : 48.0 KHz, , 2 channels (), 128 Kbps



7d6badf6601e5dbd064ff8c8d5740509abf5248eСуд (Аида Манасарова, Владимир Скуйбин, драма, детектив, 1963) [DVDRip, Не требуется] Суд (Аида Манасарова, Владимир Скуйбин, драма, детектив, 1963) [DVDRip, Не требуется] " />

Аплоадер: Админ, дата: 22-01-2013, 23:34, торрент скачан: 359 раз

Понравилась раздача? Посмотрите эти:
  • Нейтральные воды (Владимир Беренштейн, драма, 1968) [DVDRip, Не требуется]
  • До первой крови (Владимир Фокин, драма, 1989) [DVDRip, Не требуется]
  • Штрафной удар (Вениамин Дорман, комедия, спорт, 1963) [DVDRip, Не требуется ...
  • Пётр Первый (Владимир Петров, драма, военный, биография, 1937) [DVDRip, Не ...
  • Сапоги (Владимир Немоляев, короткометражка, драма, комедия, 1957) [DVDRip, ...
  • Баламут (Владимир Роговой, драма, комедия, 1978) [DVDRip, Не требуется]
  • Иваново детство (Андрей Тарковский, драма, военный, 1962) [DVDRip, Не требу ...
  • Оптимистическая трагедия (Самсон Самсонов, драма, военный, история, 1963) [ ...
  • Неподсуден (Владимир Краснопольский, Валерий Усков, драма, 1969) [DVDRip, Н ...
  • На графских развалинах (Владимир Скуйбин, приключения, семейный, 1957) [DVD ...
  • Михайло Ломоносов (Александр Иванов, драма, история, 1955) [DVDRip, Не треб ...
  • Лес (Владимир Мотыль, драма, 1980) [DVDRip, Не требуется]
  • Капитанская дочка (Владимир Каплуновский, драма, 1958) [DVDRip, Не требуетс ...
  • Трое суток после бессмертия (Владимир Довгань, военный, история, 1963) [DVD ...
  • Чудный характер (Константин Воинов, драма, 1970) [DVDRip, Не требуется]
  • Чайка (Юлий Карасик, драма, 1972) [DVDRip, Не требуется]
  • Печники (Виктор Храмов, драма, 1982) [DVDRip, Не требуется]
  • Сотрудник ЧК (Борис Волчек, боевик, история, 1963) [DVDRip, Не требуется]
  • Пропало лето (Ролан Быков, Никита Орлов, комедия, семейный, 1963) [DVDRip, ...
  • Путь к причалу (Георгий Данелия, драма, 1963) [DVDRip, Не требуется]
  • При исполнении служебных обязанностей (Илья Гурин, фантастика, драма, 1963) ...
  • Донская повесть (Владимир Фетин, драма, 1964) [DVDRip, Не требуется]
  • Хад / Hud (Мартин Ритт, драма, 1963) [DVDRip, Профессиональный (многоголосы ...
  • Кутузов (Владимир Петров, драма, 1943) [DVDRip, Не требуется]
  • Мексиканец (Владимир Каплуновский, драма, 1955) [DVDRip, Не требуется]
  • Информация
    Посетители, находящиеся в группе Гости, не могут оставлять комментарии к данной публикации.