вход на сайт

Имя пользователя :
Пароль :

Восстановление пароля Регистрация
Солёный пёс (Николай Кошелев, драма, комедия, 1973) [DVDRip, Не требуется]
Рейтинг:
(голосов: 1)



[img]{THEME}/images/logopost.png[/img]



Солёный пёс

Год выпуска: 1973
Страна: СССР
Производство: Ленфильм
Жанр: драма, комедия

Режиссёр: Николай Кошелев
В ролях: Владимир Меньшов, Татьяна Шестакова, Николай Лавров, Витаутас Паукште, Виктор Перевалов, Надежда Жилинская, Зиновий Гердт, Борис Аракелов, Николай Кузьмин, А. Лазовский

Перевод: Не требуется
Субтитры: Отсутствуют

Описание:
На одном из островов одного из тёплых морей ощенилась приблудная дворняжка. Суровый хозяин ликвидировал собаку и щенков. Но один из щенков чудом уцелел, не замеченный человеком. Рыжий щенок отважно переплыл залив и оказался в многолюдном городе.

Так как он был один на белом свете, то ему было всё равно, за кем пойти. И он пошёл за первым человеком, сказавшим ему доброе слово. А человеком этим оказался матрос Мартьямов с русского судна «Алексей Толстой»…


Дополнительно:
MediaInfo ▼Text
Общее
Полное имя :L:Соленый песСолёный пёс.avi
Формат :AVI
Размер :742 MiB
Продолжительность :01:09:31.760
Общий поток :1 492 Kbps
Программа кодирования :VirtualDubModRus 1.5.10.2 (build 2540/release)
Библиотека кодирования :VirtualDubMod build 2540/release

Видео
Идентификатор :0
Формат :MPEG-4 Visual
Профиль формата :Advanced [email protected]
Параметр BVOP формата :1
Параметр Qpel формата :No
Параметр GMC формата :0
Параметр Matrix формата :Custom
Идентификатор кодека :XVID
Продолжительность :1h 9mn 31s 760ms
Битрейт :1 354 Kbps
Ширина :640 pixels
Высота :480 pixels
Соотношение сторон :1.333
Частота кадров :25.000 fps
Глубина цвета :8 bits
Подвыборка цветности :4:2:0
Цветовое пространство :YUV
Тип развертки :Progressive
Бит/(Пиксели*Кадры) :0.176
Размер потока :673 MiB (91%)
Библиотека кодирования :XviD0064

Аудио #1
Идентификатор :1
Формат :MPEG Audio
Идентификатор кодека :55
Продолжительность :01:09:31.752
Вид битрейта :Constant
Битрейт :128 Kbps
Канал(ы) :2 channels
Частота :48.0 KHz
Метод сжатия :Lossy
Размер потока :63.7 MiB (9%)



Тех. данные:
Качест
c99e6b8344e3fb319641d198649f0befec6d2347Солёный пёс (Николай Кошелев, драма, комедия, 1973) [DVDRip, Не требуется] Солёный пёс (Николай Кошелев, драма, комедия, 1973) [DVDRip, Не требуется] " />

Аплоадер: Админ, дата: 22-01-2013, 23:22, торрент скачан: 359 раз

Понравилась раздача? Посмотрите эти:
  • Подранки (Николай Губенко, драма, 1976) [DVDRip, Не требуется]
  • Журавушка (Николай Москаленко, драма, мелодрама, 1968) [DVDRip, Не требуетс ...
  • Бой под Соколом (Александр Разумный, военный, 1942) [DVDRip, Не требуется]
  • Аленка (Борис Барнет, комедия, 1961) [DVDRip, Не требуется]
  • Открытая книга (Владимир Фетин, драма, биография, 1973) [DVDRip, Не требуе ...
  • Дни лётные (Николай Литус, Леонид Ризин, драма, 1965) [DVDRip, Не требуется ...
  • Где это видано, где это слыхано (Валентин Горлов, короткометражка, комедия, ...
  • Ход конем (Татьяна Лукашевич, комедия, 1962) [DVDRip, Не требуется]
  • Старшина (Николай Кошелев, драма, 1979) [DVDRip, Не требуется]
  • Путевка в Жизнь (Николай Экк, драма, 1931) [DVDRip, Не требуется]
  • Иван да Марья (Борис Рыцарев, фэнтези, мелодрама, комедия, семейный, музыка ...
  • Завтрак на траве (Николай Александрович, детский, комедия, 1979) [DVDRip, Н ...
  • Неисправимый лгун (Виллен Азаров, комедия, 1973) [DVDRip, Не требуется]
  • Маленький гигант большого секса (Николай Досталь, Комедия, 1992) [DVDRip, Н ...
  • Левша (Сергей Овчаров, драма, комедия, 1986) [DVDRip, Не требуется]
  • Капитанская дочка (Владимир Каплуновский, драма, 1958) [DVDRip, Не требуетс ...
  • Порожний рейс (Владимир Венгеров, драма, 1962) [DVDRip, Не требуется]
  • Печники (Виктор Храмов, драма, 1982) [DVDRip, Не требуется]
  • Соловей (Надежда Кошеверова, мюзикл, семейный, 1979) [DVDRip, Не требуется] ...
  • Я вас любил... (Илья Фрэз, мелодрама, комедия, 1967) [DVDRip, Не требуется] ...
  • Уходя - уходи (Виктор Трегубович, комедия, 1978) [DVDRip, Не требуется]
  • Прощайте, фараоны! (Давид Черкасский, Вячеслав Винник, комедия, 1974) [DVDR ...
  • Кутузов (Владимир Петров, драма, 1943) [DVDRip, Не требуется]
  • Дикое поле (Николай Гусаров, боевик, 1991) [DVDRip, Не требуется]
  • За облаками – небо (Юрий Егоров, драма, 1973) [DVDRip, Не требуется]
  • Информация
    Посетители, находящиеся в группе Гости, не могут оставлять комментарии к данной публикации.