вход на сайт

Имя пользователя :
Пароль :

Восстановление пароля Регистрация
Сказы Уральских гор (Ольгерд Воронцов, документальный, биография, 1968) [DVDRip, Не требуется]
Рейтинг:
(голосов: 1)



[img]{THEME}/images/logopost.png[/img]



Сказы Уральских гор

Год выпуска: 1968
Страна: СССР
Производство: Свердловская киностудия
Жанр: документальный, биография

Режиссёр: Ольгерд Воронцов
В ролях: Ёла Санько, Даниил Нетребин, Наталья Климова, Владимир Емельянов, Владимир Пицек, Дима Серков, Виктор Чекмарев, Тамара Логинова, Л. Чуркина

Перевод: Не требуется
Субтитры: Отсутствуют

Описание:
Фильм о творчестве Павла Петровича Бажова.


Дополнительно:
MediaInfo ▼Text
Общее
Полное имя :L:Сказы Уральски горSkazy uralskih gor.avi
Формат :AVI
Размер :1 014 MiB
Продолжительность :01:00:38.840
Общий поток :2 339 Kbps
Программа кодирования :VirtualDubMod 1.5.10.2 (build 2542/release)
Библиотека кодирования :VirtualDubMod build 2542/release

Видео
Идентификатор :0
Формат :MPEG-4 Visual
Параметр BVOP формата :3
Параметр Qpel формата :No
Параметр GMC формата :0
Параметр Matrix формата :Default (H.263)
Идентификатор кодека :DX50
Продолжительность :1h 0mn 38s 840ms
Битрейт :2 201 Kbps
Ширина :704 pixels
Высота :552 pixels
Соотношение сторон :1.275
Частота кадров :25.000 fps
Глубина цвета :8 bits
Подвыборка цветности :4:2:0
Цветовое пространство :YUV
Тип развертки :Progressive
Бит/(Пиксели*Кадры) :0.227
Размер потока :955 MiB (94%)
Библиотека кодирования :DivX503b2676p

Аудио #1
Идентификатор :1
Формат :MPEG Audio
Идентификатор кодека :55
Продолжительность :01:00:38.832
Вид битрейта :Constant
Битрейт :128 Kbps
Канал(ы) :1 channel
Частота :48.0 KHz
Метод сжатия :Lossy
Размер потока :55.5 MiB (5%)



Тех. данные:
Качество:DVDRip
Продолжительность:01:00:30 час

Формат: AVI
Видео кодек: DivX
Аудио кодек: MPA1L3
Видео: 704 x 552 (1.275), 25.000 fps, 2 201 Kbps, 0.227 bit/pixel
Аудио : 48.0 KHz, , 1 channel (), 128 Kbps



a9809b66997fb67360cc34b656919d3a35ac0818Сказы Уральских гор (Ольгерд Воронцов, документальный, биография, 1968) [DVDRip, Не требуется] Сказы Уральских гор (Ольгерд Воронцов, документальный, биография, 1968) [DVDRip, Не требуется] " />

Аплоадер: Админ, дата: 22-01-2013, 23:16, торрент скачан: 359 раз

Понравилась раздача? Посмотрите эти:
  • Василий и Василиса (Ирина Поплавская, драма, мелодрама, биография, 1981) [D ...
  • Журавушка (Николай Москаленко, драма, мелодрама, 1968) [DVDRip, Не требуетс ...
  • В огне брода нет (Глеб Панфилов, драма, военный, 1968) [DVDRip, Не требуетс ...
  • Ошибка резидента (2 части из 2) (Вениамин Дорман, детектив, 1968) [DVDRip, ...
  • По Руси (Фёдор Филиппов, биография, 1968) [DVDRip, Не требуется]
  • Открытая книга (Владимир Фетин, драма, биография, 1973) [DVDRip, Не требуе ...
  • Нейтральные воды (Владимир Беренштейн, драма, 1968) [DVDRip, Не требуется]
  • Гражданин Лёшка (Виктор Крючков, комедия, 1980) [DVDRip, Не требуется]
  • Чиполлино (Тамара Лисициан, семейный, 1973) [DVDRip, Не требуется]
  • Хозяин тайги (Владимир Назаров, криминал, 1968) [DVDRip, Не требуется]
  • Первоклассница (Илья Фрэз, детский, 1948) [DVDRip, Не требуется]
  • Гиперболоид инженера Гарина (Александр Гинцбург, фантастика, 1965) [DVDRip, ...
  • Деревенский детектив (Иван Лукинский, комедия, криминал, 1968) [DVDRip, Не ...
  • Звезда пленительного счастья (2 части из 2) (Владимир Мотыль, драма, мелодр ...
  • Оптимистическая трагедия (Самсон Самсонов, драма, военный, история, 1963) [ ...
  • Лес (Владимир Мотыль, драма, 1980) [DVDRip, Не требуется]
  • Капитанская дочка (Владимир Каплуновский, драма, 1958) [DVDRip, Не требуетс ...
  • Порожний рейс (Владимир Венгеров, драма, 1962) [DVDRip, Не требуется]
  • Чайка (Юлий Карасик, драма, 1972) [DVDRip, Не требуется]
  • Сотрудник ЧК (Борис Волчек, боевик, история, 1963) [DVDRip, Не требуется]
  • Уходя - уходи (Виктор Трегубович, комедия, 1978) [DVDRip, Не требуется]
  • Тишина /6 серий из 6 (Ольгерд Воронцов, драма, 1992) [DVDRip]
  • Смешная девчонка / Funny Girl (Уильям Уайлер , мюзикл, драма, мелодрама, ко ...
  • Александр Попов (Виктор Эйсымонт, Герберт Раппапорт, драма, биография, 1949 ...
  • Мексиканец (Владимир Каплуновский, драма, 1955) [DVDRip, Не требуется]
  • Информация
    Посетители, находящиеся в группе Гости, не могут оставлять комментарии к данной публикации.