вход на сайт

Имя пользователя :
Пароль :

Восстановление пароля Регистрация
Чайка (Юлий Карасик, драма, 1972) [DVDRip, Не требуется]
Рейтинг:
(голосов: 1)



[img]{THEME}/images/logopost.png[/img]



Чайка

Год выпуска: 1972
Страна: СССР
Производство: Мосфильм
Жанр: драма

Режиссёр: Юлий Карасик
В ролях: Алла Демидова, Владимир Четвериков, Николай Плотников, Людмила Савельева, Валентина Теличкина, Юрий Яковлев, Ефим Копелян, Армен Джигарханян, Софья Павлова, Сергей Торкачевский

Перевод: Не требуется
Субтитры: Отсутствуют

Описание:
Экранизация одноименной пьесы Антона Чехова.


Дополнительно:
MediaInfo ▼Text
Общее
Полное имя :K:ЧайкаChayka.DVDRip.avi
Формат :AVI
Размер :1.37 GiB
Продолжительность :01:34:04.288
Общий поток :2 082 Kbps
Программа кодирования :VirtualDubModRus 1.5.10.2 (build 2542/release)
Библиотека кодирования :VirtualDubMod build 2542/release

Видео
Идентификатор :0
Формат :MPEG-4 Visual
Профиль формата :Advanced [email protected]
Параметр BVOP формата :2
Параметр Qpel формата :No
Параметр GMC формата :0
Параметр Matrix формата :Default (MPEG)
Идентификатор кодека :XVID
Продолжительность :1h 34mn 4s 280ms
Битрейт :1 880 Kbps
Ширина :704 pixels
Высота :320 pixels
Соотношение сторон :2.200
Частота кадров :25.000 fps
Глубина цвета :8 bits
Подвыборка цветности :4:2:0
Цветовое пространство :YUV
Тип развертки :Progressive
Бит/(Пиксели*Кадры) :0.334
Размер потока :1.24 GiB (90%)
Библиотека кодирования :XviD0050

Аудио #1
Идентификатор :1
Формат :AC-3
Формат/Информация :Audio Coding 3
Идентификатор кодека :2000
Продолжительность :01:34:04.288
Вид битрейта :Constant
Битрейт :192 Kbps
Канал(ы) :2 channels
Расположение каналов :Front: L R
Частота :48.0 KHz
Битовая глубина :16 bits
Метод сжатия :Lossy
Размер потока :129 MiB (9%)



Тех. данные:
Качество:DVDRip
Продолжительность:01:34:08 час

Формат: AVI
Видео кодек: XviD
Аудио кодек: AC3
Видео: 704 x 320 (2.2:1), 25.000 fps, 1 880 Kbps, 0.334 bit/pixel
Аудио : 48
c27986099d1bc00b84f1fe4d9885d74d94d2aa3bЧайка (Юлий Карасик, драма, 1972) [DVDRip, Не требуется] Чайка (Юлий Карасик, драма, 1972) [DVDRip, Не требуется] " />

Аплоадер: Админ, дата: 21-01-2013, 18:40, торрент скачан: 359 раз

Понравилась раздача? Посмотрите эти:
  • Журавушка (Николай Москаленко, драма, мелодрама, 1968) [DVDRip, Не требуетс ...
  • Айрик (Генрих Малян, драма, семейный, 1972) [DVDRip, Профессиональный (пол ...
  • Нейтральные воды (Владимир Беренштейн, драма, 1968) [DVDRip, Не требуется]
  • Дикая собака Динго (Юлий Карасик, драма, 1962) [DVDRip, Не требуется]
  • Дама с собачкой (Иосиф Хейфиц, драма, мелодрама, 1959) [DVDRip, Не требуетс ...
  • Четвертый (Александр Столпер, драма, 1972) [DVDRip, Не требуется]
  • Бой после победы (2 части из 2) (Виллен Азаров, триллер, военный, 1972) [DV ...
  • Поезд идёт на восток (Цветной) (Юлий Райзман, мелодрама, комедия, 1947) [DV ...
  • Ох, уж эта Настя! (Юрий Победоносцев, семейный, 1972) [DVDRip, Не требуется ...
  • Двенадцать месяцев (2 части из 2) (Анатолий Граник, фэнтези, семейный, 1972 ...
  • Егерь (Герман Ливанов, драма, экранизация, 1960) [DVDRip, Не требуется]
  • Тропой бескорыстной любви (Агаси Бабаян, драма, 1972) [DVDRip, Не требуется ...
  • Ты и я (Лариса Шепитько, драма, 1971) [DVDRip, Не требуется]
  • Степь (2 части из 2) (Сергей Бондарчук, драма, история, 1977) [DVDRip, Не т ...
  • Табачный капитан (Игорь Усов, мюзикл, комедия, история, 1972) [DVDRip, Не т ...
  • Стакан воды (Юлий Карасик, мелодрама, комедия, история, 1979) [DVDRip, Не т ...
  • Чайка (Юлий Карасик, драма,экранизация,1971) [DVDRip, не требуется]
  • Донская повесть (Владимир Фетин, драма, 1964) [DVDRip, Не требуется]
  • Пограничный пес Алый (Юлий Файт, драма, 1979) [DVDRip, Не требуется]
  • За облаками – небо (Юрий Егоров, драма, 1973) [DVDRip, Не требуется]
  • Информация
    Посетители, находящиеся в группе Гости, не могут оставлять комментарии к данной публикации.