вход на сайт

Имя пользователя :
Пароль :

Восстановление пароля Регистрация
Чудный характер (Константин Воинов, драма, 1970) [DVDRip, Не требуется]
Рейтинг:
(голосов: 1)



[img]{THEME}/images/logopost.png[/img]



Чудный характер

Год выпуска: 1970
Страна: СССР
Производство: Мосфильм
Жанр: драма

Режиссёр: Константин Воинов
В ролях: Анатолий Азо, Владимир Басов,Татьяна Доронина, Леонид Плешаков, Геннадий Крынкин

Перевод: Не требуется
Субтитры: Отсутствуют

Описание:
Сибирячка Надежда Казакова приезжает в приморский южный городок на фестиваль молодежной песни. Но на первой же репетиции с оркестром Надя проваливается, после чего уезжает на строительство ГЭС. Там, в рабочем клубе, к ней приходит успех, вдохновение, надежда и безответная любовь.


Дополнительно:
MediaInfo ▼Text
Общее
Полное имя :L:Чудный характерChudnyy Harakter.1964.avi
Формат :AVI
Размер :1.09 GiB
Продолжительность :01:25:33.600
Общий поток :1 820 Kbps
Программа кодирования :VirtualDubMod 1.5.10.2 (build 2540/release)
Библиотека кодирования :VirtualDubMod build 2540/release

Видео
Идентификатор :0
Формат :MPEG-4 Visual
Профиль формата :Advanced [email protected]
Параметр BVOP формата :1
Параметр Qpel формата :No
Параметр GMC формата :0
Параметр Matrix формата :Default (MPEG)
Идентификатор кодека :XVID
Продолжительность :1h 25mn 33s 600ms
Битрейт :1 682 Kbps
Ширина :704 pixels
Высота :288 pixels
Соотношение сторон :2.444
Частота кадров :25.000 fps
Глубина цвета :8 bits
Подвыборка цветности :4:2:0
Цветовое пространство :YUV
Тип развертки :Progressive
Бит/(Пиксели*Кадры) :0.332
Размер потока :1.01 GiB (92%)
Библиотека кодирования :XviD0050

Аудио #1
Идентификатор :1
Формат :MPEG Audio
Идентификатор кодека :55
Продолжительность :01:25:33.288
Вид битрейта :Constant
Битрейт :128 Kbps
Канал(ы) :2 channels
Частота :48.0 KHz
Метод сжатия :Lossy
Размер потока :78.3 MiB (7%)



Тех. данные:
Качество:DVDRip
Продолжительность:01:25:30 час

Формат: AVI
Видео кодек: XviD
Аудио кодек: MPA1L3
Видео: 704 x 288 (2.40:1), 25.000 fps, 1 682 Kbps, 0.332 bit/pixel
Аудио : 48.0 KHz, , 2 channels (
3cf626dfe162cc8e54903de4a34b4e307c0158a3Чудный характер (Константин Воинов, драма, 1970) [DVDRip, Не требуется] Чудный характер (Константин Воинов, драма, 1970) [DVDRip, Не требуется] " />

Аплоадер: Админ, дата: 21-01-2013, 18:31, торрент скачан: 359 раз

Понравилась раздача? Посмотрите эти:
  • На подмостках сцены (Константин Юдин, драма, комедия, 1956) [DVDRip, Не тре ...
  • Вас вызывает Таймыр (Алексей Коренев, комедия, 1970) [DVDRip, Не требуется] ...
  • Борец и клоун (Борис Барнет, Константин Юдин, драма, спорт, 1957) [DVDRip, ...
  • Человек, которому везло (Константин Ершов, драма, 1978) [DVDRip, Не требует ...
  • Начало (Глеб Панфилов, мелодрама, комедия, 1970) [DVDRip, Не требуется]
  • Высота (Александр Зархи, мелодрама, 1957) [DVDRip, Не требуется]
  • Волшебная сила (Наум Бирман, мюзикл, комедия, семейный, 1970) [DVDRip, Не т ...
  • Опекун (Эдгар Ходжикян, Альберт С. Мкртчян, комедия, 1970) [DVDRip, Не треб ...
  • Капитанская дочка (Владимир Каплуновский, драма, 1958) [DVDRip, Не требуетс ...
  • Рудин (Константин Воинов, мелодрама, 1977) [DVDRip, Не требуется]
  • Печники (Виктор Храмов, драма, 1982) [DVDRip, Не требуется]
  • Дача (Константин Воинов, комедия, 1974) [DVDRip, Не требуется]
  • Карусель (Михаил Швейцер, комедия, 1970) [DVDRip, Не требуется]
  • Смелые люди (Константин Юдин, боевик, драма, военный, 1950) [DVDRip, Не тре ...
  • У меня есть лев (2 части из 2) (Константин Бромберг, драма, комедия, приклю ...
  • Приключения желтого чемоданчика (Илья Фрэз, комедия, семейный, 1970) [DVDRi ...
  • Солдатка (Владимир Денисенко, драма, 1959) [DVDRip, Не требуется]
  • Степанова памятка (Константин Ершов, фэнтези, 1976) [DVDRip, Не требуется]
  • Дядюшкин сон (Константин Воинов, драма, 1966) [DVDRip, Не требуется]
  • Сердца четырех (Константин Юдин, мелодрама, комедия, 1941) [DVDRip, Не треб ...
  • Информация
    Посетители, находящиеся в группе Гости, не могут оставлять комментарии к данной публикации.