вход на сайт

Имя пользователя :
Пароль :

Восстановление пароля Регистрация
Шторм на суше (Эдуард Бочаров, детский, 1975) [TVRip, Не требуется]
Рейтинг:
(голосов: 1)



[img]{THEME}/images/logopost.png[/img]



Шторм на суше

Год выпуска: 1975
Страна: СССР
Производство: Студия Горького
Жанр: детский

Режиссёр: Эдуард Бочаров
В ролях: Александр Макарцев, Александр Силин, Георгий Юматов, Нина Меньшикова, Сергей Яковлев, Станислав Чекан, Григорий Лямпе, Владимир Балашов, Павел Винник, Юрий Чернов

Перевод: Не требуется
Субтитры: Отсутствуют

Описание:
Приморский городок России, 1913 год. Митька Хряпов вместе со слободскими ребятами мечтает о дальних странах и путешествиях. С завистью думая о гавани, где им пока не разрешают бывать, они целыми днями пропадают на берегу моря и Митька терпеливо обучает друзей нехитрым делам, без которых немыслимо большое плавание. Картину «Шторм на суше» Сергей Герасимов назвал лучшим фильмом для детей.


Дополнительно:
MediaInfo ▼Text
Общее
Полное имя :K:Шторм на сушеShtorm.na.sushe.1975.avi
Формат :AVI
Размер :746 MiB
Продолжительность :01:16:21.600
Общий поток :1 366 Kbps
Программа кодирования :VirtualDubMod 1.5.10.3 | www.virtualdub-fr.org || (build 2550/release)
Библиотека кодирования :VirtualDubMod build 2550/release

Видео
Идентификатор :0
Формат :MPEG-4 Visual
Профиль формата :Advanced [email protected]
Параметр BVOP формата :1
Параметр Qpel формата :No
Параметр GMC формата :0
Параметр Matrix формата :Default (MPEG)
Идентификатор кодека :XVID
Продолжительность :1h 16mn 21s 600ms
Битрейт :1 228 Kbps
Ширина :640 pixels
Высота :376 pixels
Соотношение сторон :1.702
Частота кадров :25.000 fps
Глубина цвета :8 bits
Подвыборка цветности :4:2:0
Цветовое пространство :YUV
Тип развертки :Progressive
Бит/(Пиксели*Кадры) :0.204
Размер потока :671 MiB (90%)
Библиотека кодирования :XviD0050

Аудио #1
Идентификатор :1
Формат :MPEG Audio
Идентификатор кодека :55
Продолжительность :01:16:21.480
Вид битрейта :Constant
Битрейт :128 Kbps
Канал(ы) :2 channels
Частота :48.0 KHz
Метод сжатия :Lossy
Размер потока :69.9 MiB (9%)



Тех. данные:
Качество:TVRip
Продолжительно
d1f140ddc80e0b260bcb42857aa2f5e3dfbbb204Шторм на суше (Эдуард Бочаров, детский, 1975) [TVRip, Не требуется] Шторм на суше (Эдуард Бочаров, детский, 1975) [TVRip, Не требуется] " />

Аплоадер: Админ, дата: 20-01-2013, 03:04, торрент скачан: 359 раз

Понравилась раздача? Посмотрите эти:
  • Необыкновенное путешествие Мишки Стрекачева (Илья Фрэз, Эдуард Бочаров, сем ...
  • Каштанка (Роман Балаян, приключения, 1975) [DVDRip, Не требуется]
  • Волны Черного моря (8 частей из 8) (Артур Войтецкий, Олег Гойда, Вячеслав К ...
  • Тайна горного подземелья (Лев Мирский, детский, приключения, 1975) [DVDRip, ...
  • Таинственная находка (Борис Бунеев, детский, приключения, 1954) [DVDRip, Не ...
  • Стрелы Робин Гуда (Сергей Тарасов, боевик, приключения, история, 1975) [DVD ...
  • Старший сын (2 части из 2) (Виталий Мельников, драма, 1975) [DVDRip, Не тре ...
  • Призрак (Никита Орлов, боевик, триллер, 1991) [TVRip, Не требуется]
  • Последняя жертва (Петр Тодоровский, драма, мелодрама, 1975) [DVDRip, Не тре ...
  • Афоня (Георгий Данелия, драма, мелодрама, комедия, 1975) [DVDRip, Не требуе ...
  • Ау-у! (Геральд Бежанов, Юрий Горковенко, Виктор Крючков, комедия, 1975) [DV ...
  • Завтрак на траве (Николай Александрович, детский, комедия, 1979) [DVDRip, Н ...
  • Фантазеры (Исаак Магитон, И. Сафарова, детский, 1965) [DVDRip, Не требуется ...
  • Мы с Вулканом (Валентин Перов, детский, семейный, 1973) [TVRip, Не требуетс ...
  • У тихой пристани... (Эдуард Абалов, Тамаз Мелиава, комедия, 1958) [DVDRip, ...
  • Таинственный остров (Эдуард Пенцлин, фантастика, приключения, семейный, 194 ...
  • Морозко // Королевство кривых зеркал // Финист – Ясный сокол (Александр Роу ...
  • Рикки-Тикки-Тави (Александр Згуриди, семейный, 1975) [DVDRip, Не требуется] ...
  • Приключения маленького папы (Дмитрий Крупко, детский, комедия, 1979) [DVDRi ...
  • Юность Петра (Сергей Герасимов, драма, биография, 1980) [DVDRip, Не требует ...
  • В начале славных дел (Сергей Герасимов, драма, история, 1980) [DVDRip, Не т ...
  • Оглашению не подлежит (Хасан Бакаев, драма, 1987) [TVRip, Не требуется]
  • Большой «Фитиль» (Мери Анджапаридзе, Эдуард Бочаров, Софья Милькина, комеди ...
  • Истребители (Эдуард Пенцлин, приключения, 1939) [DVDRip, Не требуется]
  • Как рождаются тосты (Всеволод Массино, Оскар Герц, Андрей Тутышкин, коротко ...
  • Информация
    Посетители, находящиеся в группе Гости, не могут оставлять комментарии к данной публикации.