вход на сайт

Имя пользователя :
Пароль :

Восстановление пароля Регистрация
Трое суток после бессмертия (Владимир Довгань, военный, история, 1963) [DVDRip, Не требуется]
Рейтинг:
(голосов: 1)



[img]{THEME}/images/logopost.png[/img]



Трое суток после бессмертия

Год выпуска: 1963
Страна: СССР
Производство: Студия Довженко
Жанр: военный, история

Режиссёр: Владимир Довгань
В ролях: Владимир Заманский, Николай Крюков, Георгий Юматов, Геннадий Юхтин, Александр Мовчан, Альберт Акчурин, Леонид Данчишин, Лилия Калачёва, Генаят Кенжехан-улы, Виктор Колодный

Перевод: Не требуется
Субтитры: Отсутствуют

Описание:
Идет 250-й день обороны Севастополя. На окраине разбомбленного города, без рации и с горсткой боеприпасов, из последних сил держатся 12 бойцов Советской армии. С ними в укрытии — раненые, женщины и дети. Сообщение Совинформбюро о том, что Севастополь оставлен советскими войсками, открывает им суровую правду — теперь они один на один с врагом. Их единственная надежда — пробиться к морю, но какой ценой дастся доблестным солдатам путь из огненного ада длиной в четыре героических дня?


Дополнительно:
MediaInfo ▼Text
Общее
Полное имя :K:Трое суток после бессмертияTroe sutok posle bezsmertiya.avi
Формат :AVI
Размер :744 MiB
Продолжительность :01:20:22.480
Общий поток :1 295 Kbps

Видео
Идентификатор :0
Формат :MPEG-4 Visual
Профиль формата :Advanced [email protected]
Параметр BVOP формата :2
Параметр Qpel формата :No
Параметр GMC формата :0
Параметр Matrix формата :Custom
Идентификатор кодека :XVID
Продолжительность :1h 20mn 22s 480ms
Битрейт :1 154 Kbps
Ширина :624 pixels
Высота :480 pixels
Соотношение сторон :1.300
Частота кадров :25.000 fps
Глубина цвета :8 bits
Подвыборка цветности :4:2:0
Цветовое пространство :YUV
Тип развертки :Progressive
Бит/(Пиксели*Кадры) :0.154
Размер потока :663 MiB (89%)
Библиотека кодирования :XviD0046

Аудио #1
Идентификатор :1
Формат :MPEG Audio
Идентификатор кодека :55
Продолжительность :01:20:22.456
Вид битрейта :Constant
Битрейт :128 Kbps
Канал(ы) :2 channels
Частота :48.0 KHz
Метод сжатия :Lossy
Размер потока :73.6 MiB (10%)



Тех. данные:
Качество:DVDRip
Продолжительность:01:20:20 час

Формат: AVI
Видео к
9a4b0952344b1be3ef865b21b7d797ef02b06d9dТрое суток после бессмертия (Владимир Довгань, военный, история, 1963) [DVDRip, Не требуется] Трое суток после бессмертия (Владимир Довгань, военный, история, 1963) [DVDRip, Не требуется] " />

Аплоадер: Админ, дата: 20-01-2013, 03:00, торрент скачан: 359 раз

Понравилась раздача? Посмотрите эти:
  • Бой под Соколом (Александр Разумный, военный, 1942) [DVDRip, Не требуется]
  • Штрафной удар (Вениамин Дорман, комедия, спорт, 1963) [DVDRip, Не требуется ...
  • Шел четвертый год войны... (Георгий Николаенко, военный, 1983) [DVDRip, Не ...
  • Пётр Первый (Владимир Петров, драма, военный, биография, 1937) [DVDRip, Не ...
  • Путь в "Сатурн" (Виллен Азаров, военный, 1967) [DVDRip, Не требуется]
  • Бой после победы (2 части из 2) (Виллен Азаров, триллер, военный, 1972) [DV ...
  • Балтийское небо (2 части из 2) (Владимир Венгеров, драма, военный, история, ...
  • Оптимистическая трагедия (Самсон Самсонов, драма, военный, история, 1963) [ ...
  • Неподсуден (Владимир Краснопольский, Валерий Усков, драма, 1969) [DVDRip, Н ...
  • Суд (Аида Манасарова, Владимир Скуйбин, драма, детектив, 1963) [DVDRip, Не ...
  • Мульт-Салют. 8 часть из 30: Трое из Простоквашино/Каникулы в Простоквашино/ ...
  • Сотрудник ЧК (Борис Волчек, боевик, история, 1963) [DVDRip, Не требуется]
  • Пропало лето (Ролан Быков, Никита Орлов, комедия, семейный, 1963) [DVDRip, ...
  • Семнадцатый трансатлантический (Владимир Довгань, драма, военный,1972) [D ...
  • Трое суток после бессмертия (Владимир Довгань, военный,драма,1963) [DVDRi ...
  • Пассажирка / Pasazerka (Анджей Мунк, Витольд Лесевич, драма, военный, истор ...
  • Р.В.С. (Алексей Мороз, военный, 1977) [DVDRip, (2х)Оригинал (русский)]
  • Адмирал Нахимов (Всеволод Пудовкин, драма, военный, биография, история, 194 ...
  • Мичман Панин (Михаил Швейцер, приключения, военный, история, 1960) [DVDRip, ...
  • Моонзунд (2 части из 2) (Александр Муратов, драма, мелодрама, военный, исто ...
  • Информация
    Посетители, находящиеся в группе Гости, не могут оставлять комментарии к данной публикации.