вход на сайт

Имя пользователя :
Пароль :

Восстановление пароля Регистрация
Трактир на Пятницкой (Александр Файнциммер, криминал, детектив, 1977) [DVDRip, Не требуется]
Рейтинг:
(голосов: 1)



[img]{THEME}/images/logopost.png[/img]



Трактир на Пятницкой

Год выпуска: 1977
Страна: СССР
Производство: Мосфильм
Жанр: криминал, детектив

Режиссёр: Александр Файнциммер
В ролях: Александр Галибин, Геннадий Корольков, Лев Прыгунов, Глеб Стриженов, Николай Ерёменко мл., Нина Агапова, А. Чуб, Владимир Дружников, Марина Дюжева, Лариса Еремина

Перевод: Не требуется
Субтитры: Отсутствуют

Описание:
Москва времен НЭПа. В Замоскворечье орудует жестокая банда, наводящая ужас на жителей района. Дерзкие налеты следуют один за другим. В них ясно прослеживается почерк известного рецидивиста по кличке «Серый», выпущенного из заключения. Излюбленное место отдыха бандитов — трактир на Пятницкой. Но поймать их с поличным никак не удается. Единственная возможность выявить преступников — внедрить в трактир своего человека…


Дополнительно:
MediaInfo ▼Text
Общее
Полное имя :L:Трактир на ПятницкойTraktir na Pyatnickoy.avi
Формат :AVI
Размер :700 MiB
Продолжительность :01:25:03.360
Общий поток :1 151 Kbps
Программа кодирования :VirtualDubMod 1.5.4.1 (build 2178/release)
Библиотека кодирования :VirtualDubMod build 2178/release

Видео
Идентификатор :0
Формат :MPEG-4 Visual
Параметр BVOP формата :1
Параметр Qpel формата :No
Параметр GMC формата :0
Параметр Matrix формата :Default (H.263)
Идентификатор кодека :DX50
Продолжительность :1h 25mn 3s 360ms
Битрейт :1 016 Kbps
Ширина :704 pixels
Высота :304 pixels
Соотношение сторон :2.316
Частота кадров :25.000 fps
Глубина цвета :8 bits
Подвыборка цветности :4:2:0
Цветовое пространство :YUV
Тип развертки :Progressive
Бит/(Пиксели*Кадры) :0.190
Размер потока :618 MiB (88%)
Библиотека кодирования :DivX503b1328p

Аудио #1
Идентификатор :1
Формат :MPEG Audio
Идентификатор кодека :55
Продолжительность :01:25:03.240
Вид битрейта :Constant
Битрейт :128 Kbps
Канал(ы) :2 channels
Частота :48.0 KHz
Метод сжатия :Lossy
Размер потока :77.9 MiB (11%)



Тех. данные:
Качество:DVDRip
Продолжительность:01:25:00 час

Формат: AVI
96934635540c3b5f3a0ae5574dee242ede004691Трактир на Пятницкой (Александр Файнциммер, криминал, детектив, 1977) [DVDRip, Не требуется] Трактир на Пятницкой (Александр Файнциммер, криминал, детектив, 1977) [DVDRip, Не требуется] " />

Аплоадер: Админ, дата: 20-01-2013, 02:54, торрент скачан: 359 раз

Понравилась раздача? Посмотрите эти:
  • Зимородок (Вячеслав Никифоров, военный, 1972) [DVDRip, Не требуется]
  • Дело №306 (Анатолий Рыбаков, криминал, детектив, 1956) [DVDRip, Не требуетс ...
  • Хозяин тайги (Владимир Назаров, криминал, 1968) [DVDRip, Не требуется]
  • Прощай, шпана замоскворецкая... (Александр Панкратов, драма, мелодрама, 198 ...
  • Приступить к ликвидации (2 части из 2) (Борис Григорьев, боевик, криминал, ...
  • Далеко от Москвы (Александр Столпер, драма, 1950) [DVDRip, Не требуется]
  • И снова Анискин (3 части из 3) (Виталий Иванов, Михаил Жаров, криминал, дет ...
  • Миллионы Ферфакса (Николай Ильинский, криминал, детектив, 1980) [DVDRip, Не ...
  • Князь Удача Андреевич (Геннадий Байсак, комедия, криминал, семейный, 1989) ...
  • Родина зовет (Александр Мачерет, военный, 1936) [DVDRip, Не требуется]
  • Игра на миллионы (Геннадий Байсак, комедия, криминал, приключения, 1991) [T ...
  • Небывальщина (Сергей Овчаров, комедия, 1983) [DVDRip, Не требуется]
  • Танкер «Дербент» (Александр Файнциммер, приключения, 1940) [DVDRip, Не треб ...
  • Спящий лев (Александр Файнциммер, комедия, 1965) [DVDRip, Не требуется]
  • Приехали на конкурс повара (Нерсес Оганесян, комедия, 1977) [DVDRip, Не тре ...
  • Солдатки (Валентин Козачков, драма, 1977) [DVDRip, Не требуется]
  • Трактир на Пятницкой (Александр Файнциммер, криминал, детектив, 1977 год) [ ...
  • Золотая речка (Вениамин Дорман, приключения, 1977) [DVDRip, Не требуется]
  • Котовский (Александр Файнциммер, военный, биография, история, 1942) [DVDRip ...
  • Воскресенье, половина седьмого (4 части из 4) (Вадим Зобин, криминал, детек ...
  • Информация
    Посетители, находящиеся в группе Гости, не могут оставлять комментарии к данной публикации.