вход на сайт

Имя пользователя :
Пароль :

Восстановление пароля Регистрация
Первая перчатка (Андрей Фролов, мюзикл, мелодрама, комедия, спорт, 1946) [DVDRip, Не требуется]
Рейтинг:
(голосов: 1)



[img]{THEME}/images/logopost.png[/img]



Первая перчатка

Год выпуска: 1946
Страна: СССР
Производство: Мосфильм
Жанр: мюзикл, мелодрама, комедия, спорт

Режиссёр: Андрей Фролов
В ролях: Владимир Володин, Иван Переверзев, Надежда Чередниченко, Сергей Блинников, Владимир Грибков, Антон Белов, Анастасия Зуева, Павел Оленев, Эммануил Геллер, Александр Степанов

Перевод: Не требуется
Субтитры: Отсутствуют

Описание:
Молодой сибиряк Никита Крутиков — начинающий боксер. Ему прочат блестящую спортивную карьеру, чемпионский титул, но он влюблен, готов жениться и уехать с любимой домой, в Сибирь. Его тренер прилагает массу усилий, чтобы вернуть Никиту в спорт…


Дополнительно:
MediaInfo ▼Text
Общее
Полное имя :L:Первая перчаткаPervaya Perchatka.avi
Формат :AVI
Размер :1.36 GiB
Продолжительность :01:18:23.960
Общий поток :2 491 Kbps
Программа кодирования :FairUse Wizard - http://fairusewizard.com
Библиотека кодирования :The best and REALLY easy backup tool

Видео
Идентификатор :0
Формат :MPEG-4 Visual
Профиль формата :Advanced [email protected]
Параметр BVOP формата :2
Параметр Qpel формата :No
Параметр GMC формата :0
Параметр Matrix формата :Default (H.263)
Идентификатор кодека :XVID
Продолжительность :1h 18mn 23s 960ms
Битрейт :2 257 Kbps
Ширина :704 pixels
Высота :512 pixels
Соотношение сторон :1.375
Частота кадров :25.000 fps
Глубина цвета :8 bits
Подвыборка цветности :4:2:0
Цветовое пространство :YUV
Тип развертки :Progressive
Бит/(Пиксели*Кадры) :0.251
Размер потока :1.24 GiB (91%)
Библиотека кодирования :XviD0047

Аудио #1
Идентификатор :1
Формат :AC-3
Формат/Информация :Audio Coding 3
Идентификатор кодека :2000
Продолжительность :01:18:23.872
Вид битрейта :Constant
Битрейт :224 Kbps
Канал(ы) :2 channels
Расположение каналов :Front: L R
Частота :48.0 KHz
Битовая глубина :16 bits
Метод сжатия :Lossy
Размер потока :126 MiB (9%)

c2711e0abd327673c70ed20e3091944bcedecaf5Первая перчатка (Андрей Фролов, мюзикл, мелодрама, комедия, спорт, 1946) [DVDRip, Не требуется] Первая перчатка (Андрей Фролов, мюзикл, мелодрама, комедия, спорт, 1946) [DVDRip, Не требуется] " />

Аплоадер: Админ, дата: 25-01-2013, 19:20, торрент скачан: 359 раз

Понравилась раздача? Посмотрите эти:
  • Воздушный извозчик (Герберт Раппапорт, мюзикл, комедия, 1943) [DVDRip, Не т ...
  • Покровские ворота (2 части из 2) (Михаил Козаков, мюзикл, драма, мелодрама, ...
  • По главной улице с оркестром (Петр Тодоровский, мюзикл, мелодрама, комедия, ...
  • Ссора в Лукашах (Максим Руф, мюзикл, комедия, 1959) [DVDrip, Не требуется]
  • Волшебная сила (Наум Бирман, мюзикл, комедия, семейный, 1970) [DVDRip, Не т ...
  • Моя любовь (Владимир Корш-Саблин, мюзикл, мелодрама, комедия, 1940) [DVDRip ...
  • Мистер Икс (Юлий Хмельницкий, мюзикл, мелодрама, комедия, 1958) [DVDRip, Не ...
  • Насреддин в Бухаре (Nasreddin v Bukhare) (Яков Протазанов, мелодрама, комед ...
  • Сватовство гусара (Светлана Дружинина, мюзикл, мелодрама, комедия, 1979) [D ...
  • Вратарь (Семен Тимошенко, мюзикл, комедия, спорт, 1936) [DVDRip, Не требует ...
  • Табачный капитан (Игорь Усов, мюзикл, комедия, история, 1972) [DVDRip, Не т ...
  • Тень (Реставрация) (Надежда Кошеверова, фэнтези, драма, мелодрама, комедия, ...
  • Трембита (Олег Николаевский, мюзикл, мелодрама, комедия, 1968) [DVDRip, Не ...
  • У матросов нет вопросов (Владимир Роговой, мюзикл, комедия, 1980) [DVDRip, ...
  • Соловей (Надежда Кошеверова, мюзикл, семейный, 1979) [DVDRip, Не требуется] ...
  • Светлая личность (Александр Павловский, мюзикл, комедия, 1989) [DVDRip, Не ...
  • Шельменко-денщик (Андрей Тутышкин, мюзикл, комедия, 1971) [DVDRip, Не требу ...
  • Похождения Насреддина (Наби Ганиев, комедия, 1946) [DVDRip, Не требуется]
  • Русалочка (Владимир Бычков, мюзикл, фэнтези, мелодрама, семейный, 1976) [DV ...
  • К Черному морю (Андрей Тутышкин, мелодрама, комедия, 1957) [DVDRip, Не треб ...
  • Информация
    Посетители, находящиеся в группе Гости, не могут оставлять комментарии к данной публикации.