вход на сайт

Имя пользователя :
Пароль :

Восстановление пароля Регистрация
Пес Барбос и необычный кросс / Самогонщики / «Сто грамм» для храбрости (Леонид Гайдай, Борис Бушмелёв и др...., короткометражка, комедия, 1961, 1976) [DVDRip, Не требуется]
Рейтинг:
(голосов: 1)



[img]{THEME}/images/logopost.png[/img]



Пес Барбос и необычный кросс

Пес Барбос и необычный кросс ▼Год выпуска: 1961
Страна: СССР
Производство: Мосфильм
Жанр: короткометражка, комедия

Режиссёр: Леонид Гайдай
В ролях: Евгений Моргунов, Юрий Никулин, Георгий Вицин

Перевод: Не требуется
Субтитры: Отсутствуют

Описание:
Что есть главное средство для поддержания мужской дружбы и просто для увлекательного времяпрепровождения? Правильно, это рыбалка. Трус, Балбес и Бывалый решили испытать эту радость жизни на себе, но на свою беду взяли они с собой пса Барбоса…


Дополнительно:
MediaInfo ▼Text
Общее
Полное имя :L:Пес Барбос и необычный кросс. Самогонщики. Сто грамм для храбростиПес Барбос и необычный кросс, Самогонщики, Сто грамм для храбрости1.Pes.Barbos.avi
Формат :AVI
Размер :147 MiB
Продолжительность :00:10:04.080
Общий поток :2 040 Kbps
Программа кодирования :VirtualDubMod 1.5.10.2 (build 2540/release)

Видео
Идентификатор :0
Формат :MPEG-4 Visual
Профиль формата :Advanced [email protected]
Параметр BVOP формата :1
Параметр Qpel формата :No
Параметр GMC формата :0
Параметр Matrix формата :Custom
Идентификатор кодека :XVID
Продолжительность :10mn 4s 80ms
Битрейт :1 582 Kbps
Ширина :704 pixels
Высота :512 pixels
Соотношение сторон :1.375
Частота кадров :25.000 fps
Глубина цвета :8 bits
Подвыборка цветности :4:2:0
Цветовое пространство :YUV
Тип развертки :Progressive
Бит/(Пиксели*Кадры) :0.176
Размер потока :114 MiB (78%)
Библиотека кодирования :XviD0050

Аудио #1
Идентификатор :1
Формат :AC-3
Формат/Информация :Audio Coding 3
Идентификатор кодека :2000
Продолжительность :00:10:04.064
Вид битрейта :Constant
Битрейт :448 Kbps
Канал(ы) :6 channels
Расположение каналов :Front: L C R, Side: L R, LFE
Частота :48.0 KHz
Битовая глубина :16 bits
Метод сжатия :Lossy
Размер потока :32.3 MiB (22%)



Скриншоты ▼
Тех. данные:
3ad5a0a694ae10ea0d1b2fb8744b5eb148da18a6Пес Барбос и необычный кросс / Самогонщики / «Сто грамм» для храбрости (Леонид Гайдай, Борис Бушмелёв и др...., короткометражка, комедия, 1961, 1976) [DVDRip, Не требуется] Пес Барбос и необычный кросс / Самогонщики / «Сто грамм» для храбрости (Леонид Гайдай, Борис Бушмелёв и др...., короткометражка, комедия, 1961, 1976) [DVDRip, Не требуется] " />

Аплоадер: Админ, дата: 25-01-2013, 19:06, торрент скачан: 359 раз

Понравилась раздача? Посмотрите эти:
  • Пес Барбос и необычный кросс. Самогонщики (Леонид Гайдай, короткометражка, ...
  • Самогонщики / Пес Барбос и необычный кросс / «Сто грамм» для храбрости (Лео ...
  • Пес Барбос и необычный кросс / Самогонщики / «Сто грамм» для храбрости (Лео ...
  • Аленка (Борис Барнет, комедия, 1961) [DVDRip, Не требуется]
  • Где это видано, где это слыхано (Валентин Горлов, короткометражка, комедия, ...
  • Деревня Утка (Борис Бунеев, семейный, 1976) [DVDRip, Не требуется]
  • Драма (Герман Ливанов, короткометражка, комедия, 1960) [DVDRip, Не требуетс ...
  • Опасно для жизни! (Леонид Гайдай, комедия, 1985) [DVDRip, Не требуется]
  • Небесные ласточки (2 части из 2) (Леонид Квинихидзе, мюзикл, драма, комедия ...
  • Самогонщики, Пёс барбос и необычный кросс (Л. Гайдай,1961)
  • Пес Барбос и необычный кросс. Самогонщики (Леонид Гайдай, короткометражка, ...
  • Печёнка (Арман Манарян, короткометражка, комедия, 1962) [DVDRip, Не требует ...
  • Весь Гайдай (Пес Барбос Самогонщики Операция Ы Кавказская пленница Бриллиа ...
  • Термометр (Рамаз Шарабидзе, короткометражка, 1976) [TVRip, Профессиональный ...
  • Три рубля / Sami maneti (Рамаз Шарабидзе, короткометражка, комедия, 1976) [ ...
  • Совершенно серьезно (Леонид Гайдай, Эльдар Рязанов, Владимир Семаков, коме ...
  • Спортлото-82 (Леонид Гайдай, комедия, приключения, 1982) [DVDRip, Не требуе ...
  • Самогонщики(сборник фильмов)[1961, Комедия, DVDRip]
  • Самогонщики, Пёс барбос и необычный кросс (Леонид Гайдай , Комедия, 1961) [ ...
  • Леонид Гайдай ( комедия, с 1958 - по 1992: Операция «Ы», Пес Барбос и необы ...
  • «Сто грамм» для храбрости (Борис Бушмелёв, Анатолий Маркелов, Георгий Щукин ...
  • Деловые люди (полная реставрация) (Леонид Гайдай, комедия, драма, 1962) [DV ...
  • Хозяин и слуга (Дмитрий Кесаянц, короткометражка, комедия, 1963) [DVDRip, Н ...
  • Живите в радости (Леонид Миллионщиков, комедия, 1978) [DVDRip, Не требуется ...
  • Как рождаются тосты (Всеволод Массино, Оскар Герц, Андрей Тутышкин, коротко ...
  • Информация
    Посетители, находящиеся в группе Гости, не могут оставлять комментарии к данной публикации.