вход на сайт

Имя пользователя :
Пароль :

Восстановление пароля Регистрация
Порожний рейс (Владимир Венгеров, драма, 1962) [DVDRip, Не требуется]
Рейтинг:
(голосов: 1)



[img]{THEME}/images/logopost.png[/img]



Порожний рейс

Год выпуска: 1962
Страна: СССР
Производство: Ленфильм
Жанр: драма

Режиссёр: Владимир Венгеров
В ролях: Георгий Юматов, Александр Демьяненко, Тамара Сёмина, Анатолий Папанов, Герман Качин, Светлана Харитонова, Борис Чирков, Ирина Губанова, Николай Крюков, Николай Кузьмин

Перевод: Не требуется
Субтитры: Отсутствуют

Описание:
В сибирский леспромхоз приезжает молодой журналист Сироткин, чтобы написать очерк о шофере-передовике Хромове. Познакомившись с делами, он узнает, что шофер замешан в темных махинациях директора леспромхоза. Почувствовав опасность, директор поручает Хромову покончить с журналистом, когда тот повезет его обратно…


Дополнительно:
MediaInfo ▼Text
Общее
Полное имя :K:Порожний рейсPorozhniy reys.DVDRip.avi
Формат :AVI
Размер :1.37 GiB
Продолжительность :01:28:28.200
Общий поток :2 212 Kbps
Программа кодирования :VirtualDubModRus 1.5.10.2 (build 2542/release)
Библиотека кодирования :VirtualDubMod build 2542/release

Видео
Идентификатор :0
Формат :MPEG-4 Visual
Параметр BVOP формата :Yes
Параметр Qpel формата :No
Параметр GMC формата :0
Параметр Matrix формата :Default (H.263)
Идентификатор кодека :DX50
Продолжительность :1h 28mn 28s 200ms
Битрейт :2 011 Kbps
Ширина :720 pixels
Высота :336 pixels
Соотношение сторон :2.143
Частота кадров :25.000 fps
Глубина цвета :8 bits
Подвыборка цветности :4:2:0
Цветовое пространство :YUV
Тип развертки :Progressive
Бит/(Пиксели*Кадры) :0.332
Размер потока :1.24 GiB (91%)
Библиотека кодирования :DivX503b2676p

Аудио #1
Идентификатор :1
Формат :AC-3
Формат/Информация :Audio Coding 3
Идентификатор кодека :2000
Продолжительность :01:28:28.192
Вид битрейта :Constant
Битрейт :192 Kbps
Канал(ы) :2 channels
Расположение каналов :Front: L R
Частота :48.0 KHz
Битовая глубина :16 bits
Метод сжатия :Lossy
Размер потока :121 MiB (9%)



БИОГРАФИЯ Г. ЮМАТОВА
00af6ea5393de4ab20375d40c01eb54ba0de4669Порожний рейс (Владимир Венгеров, драма, 1962) [DVDRip, Не требуется] Порожний рейс (Владимир Венгеров, драма, 1962) [DVDRip, Не требуется] " />

Аплоадер: Админ, дата: 24-01-2013, 19:42, торрент скачан: 359 раз

Понравилась раздача? Посмотрите эти:
  • Открытая книга (Владимир Фетин, драма, биография, 1973) [DVDRip, Не требуе ...
  • Нейтральные воды (Владимир Беренштейн, драма, 1968) [DVDRip, Не требуется]
  • Дикая собака Динго (Юлий Карасик, драма, 1962) [DVDRip, Не требуется]
  • Четвертый (Александр Столпер, драма, 1972) [DVDRip, Не требуется]
  • Конец "Сатурна" (Виллен Азаров, Мосфильм, 1967) [DVDRip, Не требуется]
  • Пакет (Владимир Назаров, комедия, приключения, семейный, 1965) [DVDRip, Не ...
  • Балтийское небо (2 части из 2) (Владимир Венгеров, драма, военный, история, ...
  • На графских развалинах (Владимир Скуйбин, приключения, семейный, 1957) [DVD ...
  • Лес (Владимир Мотыль, драма, 1980) [DVDRip, Не требуется]
  • Капитанская дочка (Владимир Каплуновский, драма, 1958) [DVDRip, Не требуетс ...
  • Печёнка (Арман Манарян, короткометражка, комедия, 1962) [DVDRip, Не требует ...
  • Чайка (Юлий Карасик, драма, 1972) [DVDRip, Не требуется]
  • Семь нянек (Ролан Быков, комедия, 1962) [DVDRip, Не требуется]
  • Степь (2 части из 2) (Сергей Бондарчук, драма, история, 1977) [DVDRip, Не т ...
  • Сотрудник ЧК (Борис Волчек, боевик, история, 1963) [DVDRip, Не требуется]
  • Деловые люди (полная реставрация) (Леонид Гайдай, комедия, драма, 1962) [DV ...
  • Донская повесть (Владимир Фетин, драма, 1964) [DVDRip, Не требуется]
  • Взрослые дети (Виллен Азаров, драма, комедия, 1962) [DVDRip, Не требуется] ...
  • Чудак-человек (Владимир Кочетов, комедия, 1962) [DVDRip, Не требуется]
  • Два капитана (Владимир Венгеров, приключения, 1955) [ТVRip, Не требуется]
  • Р.В.С. (Алексей Мороз, военный, 1977) [DVDRip, (2х)Оригинал (русский)]
  • Вера, надежда, любовь (Владимир Грамматиков, приключения, 1984) [DVDRip, Не ...
  • Кутузов (Владимир Петров, драма, 1943) [DVDRip, Не требуется]
  • Мексиканец (Владимир Каплуновский, драма, 1955) [DVDRip, Не требуется]
  • Карьера Димы Горина (Фрунзе Довлатян, Лев Мирский, комедия, 1962) [DVDRip, ...
  • Информация
    Посетители, находящиеся в группе Гости, не могут оставлять комментарии к данной публикации.