вход на сайт

Имя пользователя :
Пароль :

Восстановление пароля Регистрация
Пиковая дама (Игорь Масленников, драма, 1982) [DVDRip, Не требуется]
Рейтинг:
(голосов: 1)



[img]{THEME}/images/logopost.png[/img]



Пиковая дама

Год выпуска: 1982
Страна: СССР
Производство: Ленфильм
Жанр: драма

Режиссёр: Игорь Масленников
В ролях: Виктор Проскурин, Ирина Дымченко, Елена Гоголева, Виталий Соломин, Иннокентий Смоктуновский, Константин Григорьев, Александр Захаров, Алла Демидова, Алексей Жарков, Виталий Баганов

Перевод: Не требуется
Субтитры: Отсутствуют

Описание:
Буквальная и одновременно виртуозно-артистичная экранизация всемирно известного пушкинского сюжета, поставленная создателем `нашего` Шерлока Холмса Игорем Масленниковым…


Дополнительно:
MediaInfo ▼Text
Общее
Полное имя :K:Пиковая дамаПиковая дама.1982.avi
Формат :AVI
Размер :749 MiB
Продолжительность :01:26:37.920
Общий поток :1 209 Kbps
Программа кодирования :VirtualDubMod 1.5.4.1 (build 2178/release)

Видео
Идентификатор :0
Формат :MPEG-4 Visual
Профиль формата :Advanced [email protected]
Параметр BVOP формата :1
Параметр Qpel формата :No
Параметр GMC формата :0
Параметр Matrix формата :Custom
Идентификатор кодека :XVID
Продолжительность :1h 26mn 37s 920ms
Битрейт :1 071 Kbps
Ширина :656 pixels
Высота :496 pixels
Соотношение сторон :1.323
Частота кадров :25.000 fps
Глубина цвета :8 bits
Подвыборка цветности :4:2:0
Цветовое пространство :YUV
Тип развертки :Progressive
Бит/(Пиксели*Кадры) :0.132
Размер потока :664 MiB (89%)
Библиотека кодирования :XviD0047

Аудио #1
Идентификатор :1
Формат :MPEG Audio
Идентификатор кодека :55
Продолжительность :01:26:37.920
Вид битрейта :Constant
Битрейт :128 Kbps
Канал(ы) :2 channels
Частота :48.0 KHz
Метод сжатия :Lossy
Размер потока :79.3 MiB (11%)



Тех. данные:
Качество:DVDRip
Продолжительность:01:26:30 час

Формат: AVI
Видео кодек: XviD
Аудио кодек: MPA1L3
Видео: 656 x 496 (4:3), 25.000 fps, 1 071 Kbps, 0.132 bit/pixel
Аудио : 48.0 KHz, , 2 channels (), 128 Kbps



382ed5a05dd2e658cf27a69f5c93f7a187b1bda3Пиковая дама (Игорь Масленников, драма, 1982) [DVDRip, Не требуется] Пиковая дама (Игорь Масленников, драма, 1982) [DVDRip, Не требуется] " />

Аплоадер: Админ, дата: 24-01-2013, 19:19, торрент скачан: 359 раз

Понравилась раздача? Посмотрите эти:
  • Наследница по прямой (Сергей Соловьев, мелодрама, 1982) [DVDRip, Не требует ...
  • Кукарача (Кети Долидзе, Сико Долидзе, драма, 1982) [DVDRip, Профессиональны ...
  • Казачья застава (Виктор Живолуб, драма, 1982) [DVDRip, Не требуется]
  • Инспектор ГАИ (Эльдор Уразбаев, драма, 1982) [DVDRip, Не требуется]
  • Дама с собачкой (Иосиф Хейфиц, драма, мелодрама, 1959) [DVDRip, Не требуетс ...
  • Гикор (Сергей Исраелян, драма, семейный, 1982) [DVDRip, Профессиональный (п ...
  • Покровские ворота (2 части из 2) (Михаил Козаков, мюзикл, драма, мелодрама, ...
  • Бабье царство (Алексей Салтыков, драма, 1967) [DVDRip, Не требуется]
  • Друг мой, Колька!.. (Александр Митта, Алексей Салтыков, драма, 1961) [DVDRi ...
  • Дом, который построил Свифт (2 части из 2) (Марк Захаров, фэнтези, триллер, ...
  • Шерлок Холмс и доктор Ватсон: Охота на тигра / Смертельная схватка / Собака ...
  • Князь Игорь (Роман Тихомиров, мюзикл, приключения, 1969) [DVDRip, Не требуе ...
  • Пиковая дама (Яков Протазанов, немое кино, ужасы, фэнтези, драма, 1916) [DV ...
  • Пиковая Дама (Роман Тихомиров, мюзикл, драма, 1961) [DVDRip, Не требуется]
  • Чайка (Юлий Карасик, драма, 1972) [DVDRip, Не требуется]
  • Печники (Виктор Храмов, драма, 1982) [DVDRip, Не требуется]
  • Небывальщина (Сергей Овчаров, комедия, 1983) [DVDRip, Не требуется]
  • Взятки гладки (2 части из 2) (Игорь Масленников, Комедия, 2008) [DVDRip, Не ...
  • Филипп Траум (Игорь Масленников, фэнтези, детектив, приключения, 1989) [DVD ...
  • Трест, который лопнул (3 части из 3) (Александр Павловский, мюзикл, комедия ...
  • Спортлото-82 (Леонид Гайдай, комедия, приключения, 1982) [DVDRip, Не требуе ...
  • Степанова памятка (Константин Ершов, фэнтези, 1976) [DVDRip, Не требуется]
  • Пиковая дама (Игорь Масленников, Драма, 1982) [DVDRip, оригинал]
  • Дядюшкин сон (2 части из2) (Александр Орлов, драма, комедия, 1981) [DVDRip, ...
  • Демидовы (2 части из 2) (Ярополк Лапшин, драма, биография, 1982) [DVDRip, Н ...
  • Информация
    Посетители, находящиеся в группе Гости, не могут оставлять комментарии к данной публикации.