вход на сайт

Имя пользователя :
Пароль :

Восстановление пароля Регистрация
Пиковая Дама (Роман Тихомиров, мюзикл, драма, 1961) [DVDRip, Не требуется]
Рейтинг:
(голосов: 1)



[img]{THEME}/images/logopost.png[/img]



Пиковая Дама

Год выпуска: 1961
Страна: СССР
Производство: Ленфильм
Жанр: мюзикл, драма

Режиссёр: Роман Тихомиров
В ролях: Олег Стриженов, Зураб Анджапаридзе, Владимир Басов, И. Дарялов, Ирина Губанова, А. Густавсон, Евгений Кибкало, В. Кириллов, Ольга Красина, Валентин Куклик

Перевод: Не требуется
Субтитры: Отсутствуют

Описание:
Фильм-опера по повести А. С. Пушкина. Музыка П. И. Чайковского. `Тройка, семерка, туз — не выходили из его головы и шевелились на его губах. …Тройка, семерка, туз — преследовали его во сне, принимая все возможные виды… Все мысли его слились в одну, — воспользоваться тайной, которая дорого ему стоила.`


Дополнительно:
MediaInfo ▼Text
Общее
Полное имя :L:Пиковая Дама.1961Пиковая Дама.avi
Формат :AVI
Размер :1.49 GiB
Продолжительность :01:41:18.360
Общий поток :2 107 Kbps
Программа кодирования :VirtualDubMod 1.5.10.2 (build 2540/release)
Библиотека кодирования :VirtualDubMod build 2540/release

Видео
Идентификатор :0
Формат :MPEG-4 Visual
Профиль формата :Advanced [email protected]
Параметр BVOP формата :3
Параметр Qpel формата :Yes
Параметр GMC формата :3
Параметр Matrix формата :Default (H.263)
Идентификатор кодека :XVID
Продолжительность :1h 41mn 18s 360ms
Битрейт :1 969 Kbps
Ширина :720 pixels
Высота :520 pixels
Соотношение сторон :1.385
Частота кадров :25.000 fps
Глубина цвета :8 bits
Подвыборка цветности :4:2:0
Цветовое пространство :YUV
Тип развертки :Progressive
Бит/(Пиксели*Кадры) :0.210
Размер потока :1.39 GiB (93%)
Библиотека кодирования :XviD0047

Аудио #1
Идентификатор :1
Формат :MPEG Audio
Идентификатор кодека :55
Продолжительность :01:41:18.360
Вид битрейта :Constant
Битрейт :128 Kbps
Канал(ы) :2 channels
Частота :48.0 KHz
Метод сжатия :Lossy
Размер потока :92.7 MiB (6%)



Тех. данные:
Качество:DVDRip
Продолжительность:01:41:10 час

Формат: AVI
Видео кодек: XviD
Аудио кодек: MPA1L3
Видео: 720 x 520 (
93ce96190e40165bc562c06443ee98130ef132a8Пиковая Дама (Роман Тихомиров, мюзикл, драма, 1961) [DVDRip, Не требуется] Пиковая Дама (Роман Тихомиров, мюзикл, драма, 1961) [DVDRip, Не требуется] " />

Аплоадер: Админ, дата: 24-01-2013, 19:17, торрент скачан: 359 раз

Понравилась раздача? Посмотрите эти:
  • Биндюжник и король (2 части из 2) (Владимир Алеников, мюзикл, драма, комеди ...
  • Аленка (Борис Барнет, комедия, 1961) [DVDRip, Не требуется]
  • Однажды на матрасе / Once Upon a Mattress (Кэтлин Маршалл, мюзикл, мелодрам ...
  • Каштанка (Роман Балаян, приключения, 1975) [DVDRip, Не требуется]
  • Дама с собачкой (Иосиф Хейфиц, драма, мелодрама, 1959) [DVDRip, Не требуетс ...
  • Воздушный извозчик (Герберт Раппапорт, мюзикл, комедия, 1943) [DVDRip, Не т ...
  • Человек идёт за солнцем (Михаил Калик, драма, 1961) [DVDRip, Не требуется]
  • Друг мой, Колька!.. (Александр Митта, Алексей Салтыков, драма, 1961) [DVDRi ...
  • Неподсуден (Владимир Краснопольский, Валерий Усков, драма, 1969) [DVDRip, Н ...
  • Небесные ласточки (2 части из 2) (Леонид Квинихидзе, мюзикл, драма, комедия ...
  • Моя любовь (Владимир Корш-Саблин, мюзикл, мелодрама, комедия, 1940) [DVDRip ...
  • Мама (Элизабета Бостан, мюзикл, фэнтези, семейный, 1976) [DVDRip, Не требуе ...
  • Князь Игорь (Роман Тихомиров, мюзикл, приключения, 1969) [DVDRip, Не требуе ...
  • Капитанская дочка (Владимир Каплуновский, драма, 1958) [DVDRip, Не требуетс ...
  • Крепостная актриса (Роман Тихомиров, мюзикл, 1964) [DVDRip, Не требуется]
  • Пиковая дама (Яков Протазанов, немое кино, ужасы, фэнтези, драма, 1916) [DV ...
  • Пиковая дама (Игорь Масленников, драма, 1982) [DVDRip, Не требуется]
  • Чудный характер (Константин Воинов, драма, 1970) [DVDRip, Не требуется]
  • Печники (Виктор Храмов, драма, 1982) [DVDRip, Не требуется]
  • Трест, который лопнул (3 части из 3) (Александр Павловский, мюзикл, комедия ...
  • Соловей (Надежда Кошеверова, мюзикл, семейный, 1979) [DVDRip, Не требуется] ...
  • Табор уходит в небо (Эмиль Лотяну, мюзикл, драма, мелодрама, 1976) [DVDRip, ...
  • Шельменко-денщик (Андрей Тутышкин, мюзикл, комедия, 1971) [DVDRip, Не требу ...
  • У меня есть лев (2 части из 2) (Константин Бромберг, драма, комедия, приклю ...
  • Пиковая дама (Игорь Масленников, Драма, 1982) [DVDRip, оригинал]
  • Информация
    Посетители, находящиеся в группе Гости, не могут оставлять комментарии к данной публикации.