вход на сайт

Имя пользователя :
Пароль :

Восстановление пароля Регистрация
Рядом с нами (Адольф Бергункер, драма, 1957) [DVDRip, Не требуется]
Рейтинг:
(голосов: 1)



[img]{THEME}/images/logopost.png[/img]



Рядом с нами

Год выпуска: 1957
Страна: СССР
Производство: Ленфильм
Жанр: драма

Режиссёр: Адольф Бергункер
В ролях: Леонид Быков, Иннокентий Смоктуновский, Клара Лучко, Георгий Юматов, Николай Рыбников, Нина Дорошина, Людмила Шагалова, Борис Чирков, Зинаида Шарко, Владислав Стржельчик

Перевод: Не требуется
Субтитры: Отсутствуют

Описание:
Инженер и журналист приехали на один из заводов Алтая. Они только что закончили институты и уверены в том, что будущее в их руках. На заводе все отношения складываются вокруг сомнительной славы токаря Миловидова. Свежий взгляд, уверенность в себе и друг в друге помогают друзьям разоблачить «рекордсмена».


Дополнительно:
MediaInfo ▼Text
Общее
Полное имя :K:Рядом с намиRyadom s nami.DVDRip.avi
Формат :AVI
Размер :745 MiB
Продолжительность :01:28:40.640
Общий поток :1 174 Kbps
Программа кодирования :VirtualDubModRus 1.5.10.2 (build 2542/release)
Библиотека кодирования :VirtualDubMod build 2542/release

Видео
Идентификатор :0
Формат :MPEG-4 Visual
Параметр BVOP формата :1
Параметр Qpel формата :No
Параметр GMC формата :0
Параметр Matrix формата :Default (H.263)
Идентификатор кодека :DX50
Продолжительность :1h 28mn 40s 640ms
Битрейт :1 036 Kbps
Ширина :640 pixels
Высота :480 pixels
Соотношение сторон :1.333
Частота кадров :25.000 fps
Глубина цвета :8 bits
Подвыборка цветности :4:2:0
Цветовое пространство :YUV
Тип развертки :Progressive
Бит/(Пиксели*Кадры) :0.135
Размер потока :657 MiB (88%)
Библиотека кодирования :DivX503b2676p

Аудио #1
Идентификатор :1
Формат :MPEG Audio
Идентификатор кодека :55
Продолжительность :01:28:40.608
Вид битрейта :Constant
Битрейт :128 Kbps
Канал(ы) :2 channels
Частота :48.0 KHz
Метод сжатия :Lossy
Размер потока :81.2 MiB (11%)



Тех. данные:
Качество:DVDRip
Продолжительность:01:28:40 час

Формат: AVI
Видео кодек: DivX
Аудио кодек: MPA1L3
Видео: 640 x 480 (4:3), 25.000 fps, 1 036 Kbps, 0.135 bit/pixel
Аудио : 48.0 KHz,
6aef582c3c2e4fdd5e6c09292d656e6f9704283bРядом с нами (Адольф Бергункер, драма, 1957) [DVDRip, Не требуется] Рядом с нами (Адольф Бергункер, драма, 1957) [DVDRip, Не требуется] " />

Аплоадер: Админ, дата: 24-01-2013, 03:20, торрент скачан: 359 раз

Понравилась раздача? Посмотрите эти:
  • Журавушка (Николай Москаленко, драма, мелодрама, 1968) [DVDRip, Не требуетс ...
  • Дни хирурга Мишкина (3 части из 3) (Вадим Зобин, драма, 1967) [DVDRip, Не т ...
  • Борец и клоун (Борис Барнет, Константин Юдин, драма, спорт, 1957) [DVDRip, ...
  • Нейтральные воды (Владимир Беренштейн, драма, 1968) [DVDRip, Не требуется]
  • Летят журавли (Михаил Калатозов, драма, мелодрама, военный, 1957) [DVDRip, ...
  • Девушка без адреса (Эльдар Рязанов, мелодрама, комедия, 1957) [DVDRip, Не т ...
  • Высота (Александр Зархи, мелодрама, 1957) [DVDRip, Не требуется]
  • Эзоп (Олег Рябоконь, драма, история, 1981) [DVDRip, Не требуется]
  • Убийство на улице Данте (Михаил Ромм, драма, 1956) [DVDRip, Не требуется]
  • Сапоги (Владимир Немоляев, короткометражка, драма, комедия, 1957) [DVDRip, ...
  • На графских развалинах (Владимир Скуйбин, приключения, семейный, 1957) [DVD ...
  • Комиссар (Александр Аскольдов, драма, военный, 1967) [DVDRip, Не требуется] ...
  • Порожний рейс (Владимир Венгеров, драма, 1962) [DVDRip, Не требуется]
  • Чайка (Юлий Карасик, драма, 1972) [DVDRip, Не требуется]
  • Степь (2 части из 2) (Сергей Бондарчук, драма, история, 1977) [DVDRip, Не т ...
  • Путь к причалу (Георгий Данелия, драма, 1963) [DVDRip, Не требуется]
  • Тихий Дон (3 части из 3) (Сергей Герасимов, драма, военный, 1957) [DVDRip, ...
  • Донская повесть (Владимир Фетин, драма, 1964) [DVDRip, Не требуется]
  • Мексиканец (Владимир Каплуновский, драма, 1955) [DVDRip, Не требуется]
  • К Черному морю (Андрей Тутышкин, мелодрама, комедия, 1957) [DVDRip, Не треб ...
  • Информация
    Посетители, находящиеся в группе Гости, не могут оставлять комментарии к данной публикации.