вход на сайт

Имя пользователя :
Пароль :

Восстановление пароля Регистрация
Родина зовет (Александр Мачерет, военный, 1936) [DVDRip, Не требуется]
Рейтинг:
(голосов: 1)



[img]{THEME}/images/logopost.png[/img]



Родина зовет

Год выпуска: 1936
Страна: СССР
Производство: Мосфильм
Жанр: военный

Режиссёр: Александр Мачерет
В ролях: Валентина Кузнецова, Александра Попова, Павел Березов, Сергей Антимонов, Николай Соснин

Перевод: Не требуется
Субтитры: Отсутствуют

Описание:
Опережая события военных сороковых, фильм, посвященный советским летчикам и успехам авиации, рассказывает о геройских подвигах бывшего солдата гражданской войны, летчика-испытателя Сергея Новикова, одержавшего победу в первом бою с фашистами.


Дополнительно:
MediaInfo ▼Text
Общее
Полное имя :L:Родина зоветRodina zovet.1936.avi
Формат :AVI
Размер :1.17 GiB
Продолжительность :01:14:43.680
Общий поток :2 243 Kbps
Программа кодирования :VirtualDubMod 1.5.4.1 (build 2178/release)
Библиотека кодирования :VirtualDubMod build 2178/release

Видео
Идентификатор :0
Формат :MPEG-4 Visual
Профиль формата :Advanced [email protected]
Параметр BVOP формата :1
Параметр Qpel формата :No
Параметр GMC формата :0
Параметр Matrix формата :Custom
Идентификатор кодека :XVID
Продолжительность :1h 14mn 43s 680ms
Битрейт :2 108 Kbps
Ширина :720 pixels
Высота :544 pixels
Соотношение сторон :1.324
Частота кадров :25.000 fps
Глубина цвета :8 bits
Подвыборка цветности :4:2:0
Цветовое пространство :YUV
Тип развертки :Progressive
Бит/(Пиксели*Кадры) :0.215
Размер потока :1.10 GiB (94%)
Библиотека кодирования :XviD0047

Аудио #1
Идентификатор :1
Формат :MPEG Audio
Идентификатор кодека :55
Продолжительность :01:14:43.320
Вид битрейта :Constant
Битрейт :128 Kbps
Канал(ы) :2 channels
Частота :48.0 KHz
Метод сжатия :Lossy
Размер потока :68.4 MiB (6%)



Тех. данные:
Качество:DVDRip
Продолжительность:01:14:40 час

Формат: AVI
Видео кодек: XviD
Аудио кодек: MPA1L3
Видео: 720 x 544 (4:3), 25.000 fps, 2 108 Kbps, 0.215 bit/pixel
Аудио : 48.0 KHz, , 2 channels (), 128 Kbps



471df0b9636a7a934812c7ba04a82668044b796eРодина зовет (Александр Мачерет, военный, 1936) [DVDRip, Не требуется] Родина зовет (Александр Мачерет, военный, 1936) [DVDRip, Не требуется] " />

Аплоадер: Админ, дата: 24-01-2013, 03:13, торрент скачан: 359 раз

Понравилась раздача? Посмотрите эти:
  • Бой под Соколом (Александр Разумный, военный, 1942) [DVDRip, Не требуется]
  • Летят журавли (Михаил Калатозов, драма, мелодрама, военный, 1957) [DVDRip, ...
  • Зимородок (Вячеслав Никифоров, военный, 1972) [DVDRip, Не требуется]
  • Два гусара (Вячеслав Криштофович, мелодрама, 1984) [DVDRip, Не требуется]
  • Шел четвертый год войны... (Георгий Николаенко, военный, 1983) [DVDRip, Не ...
  • Чиполлино (Тамара Лисициан, семейный, 1973) [DVDRip, Не требуется]
  • Старшина (Николай Кошелев, драма, 1979) [DVDRip, Не требуется]
  • Путевка в Жизнь (Николай Экк, драма, 1931) [DVDRip, Не требуется]
  • Прощай, шпана замоскворецкая... (Александр Панкратов, драма, мелодрама, 198 ...
  • Парень из нашего города (Александр Столпер, Борис Иванов, драма, военный, 1 ...
  • Баллада о солдате (Григорий Чухрай, драма, мелодрама, военный, 1959) [DVDRi ...
  • Далеко от Москвы (Александр Столпер, драма, 1950) [DVDRip, Не требуется]
  • Левша (Сергей Овчаров, драма, комедия, 1986) [DVDRip, Не требуется]
  • Комиссар (Александр Аскольдов, драма, военный, 1967) [DVDRip, Не требуется] ...
  • Эскадрон гусар летучих (Никита Хубов, Станислав Ростоцкий, военный, 1980) [ ...
  • Повесть о настоящем человеке (Александр Столпер, драма, военный, 1948) [DVD ...
  • Вратарь (Семен Тимошенко, мюзикл, комедия, спорт, 1936) [DVDRip, Не требует ...
  • Небывальщина (Сергей Овчаров, комедия, 1983) [DVDRip, Не требуется]
  • Танкер «Дербент» (Александр Файнциммер, приключения, 1940) [DVDRip, Не треб ...
  • Славный малый (Борис Барнет, военный, 1943) [DVDRip, Не требуется]
  • Тихий Дон (3 части из 3) (Сергей Герасимов, драма, военный, 1957) [DVDRip, ...
  • Болотные солдаты (Александр Мачерет, драма, военный, 1938) [DVDRip, Не треб ...
  • Дом на дюнах (Дмитрий Салынский, приключения, 1984) [DVDRip, Не требуется]
  • Александр Пархоменко (Леонид Луков, военный, биография, история, 1942) [DVD ...
  • Котовский (Александр Файнциммер, военный, биография, история, 1942) [DVDRip ...
  • Информация
    Посетители, находящиеся в группе Гости, не могут оставлять комментарии к данной публикации.