вход на сайт

Имя пользователя :
Пароль :

Восстановление пароля Регистрация
"Тигры" на льду (Валентин Козачков, Альберт Осипов, детский, комедия, спорт, 1971) [DVDRip, Не требуется]
Рейтинг:
(голосов: 1)



[img]{THEME}/images/logopost.png[/img]



"Тигры" на льду

Год выпуска: 1971
Страна: СССР
Производство: Одесская киностудия
Жанр: детский, комедия, спорт

Режиссёр: Валентин Козачков, Альберт Осипов
В ролях: Павел Ананьев, Л. Бегун, Наташа Белоус, Пётр Черкашин, Юрий Дедович, Саша Голиков, Владимир Грамматиков, Юлия Корнева, Валентин Козачков, Саша Кривенко

Перевод: Не требуется
Субтитры: Отсутствуют

Описание:
Сестра и брат — близнецы учатся в одном классе. Девочка Зина занимается в драматическом кружке и секции фигурного катания, а её брат Игнат, убедившись в собственной физической слабости, начинает играть в дворовой хоккейной команде «Тигры». Первые синяки и даже серьезные ушибы не останавливают упорного мальчика — и вскоре он становится смелым и сильным — одним из лучших игроков команды, впервые принявшей участие в соревнованиях на приз «Золотая шайба».

Сюжет построен на том, что Зина во время соревнований по хоккею, выручая, заменяет своего брата и помогает команде выиграть.


Дополнительно:
MediaInfo ▼Text
Общее
Полное имя :D:«Тигры» на льдуTigry na ldu.avi
Формат :AVI
Размер :1.35 GiB
Продолжительность :01:17:10.480
Общий поток :2 511 Kbps
Библиотека кодирования :VirtualDub build 24442/release

Видео
Идентификатор :0
Формат :MPEG-4 Visual
Параметр BVOP формата :1
Параметр Qpel формата :No
Параметр GMC формата :0
Параметр Matrix формата :Default (H.263)
Идентификатор кодека :DX50
Продолжительность :1h 17mn 10s 480ms
Битрейт :2 373 Kbps
Ширина :704 pixels
Высота :432 pixels
Соотношение сторон :1.630
Частота кадров :25.000 fps
Глубина цвета :8 bits
Подвыборка цветности :4:2:0
Цветовое пространство :YUV
Тип развертки :Progressive
Бит/(Пиксели*Кадры) :0.312
Размер потока :1.28 GiB (95%)
Библиотека кодирования :DivX503b1988p

Аудио #1
Идентификатор :1
Формат :MPEG Audio
Идентификатор кодека :55
Продолжительность :01:17:10.321
Вид битрейта :Constant
Битрейт :128 Kbps
Канал(ы) :2 channels
Частота :48.0 KHz
Метод сжатия :Lossy
Размер потока :70.7 MiB (5%)



Тех. дан
1af69353b3d8a850b2038e6b12b0c64bef7d91c5"Тигры" на льду (Валентин Козачков, Альберт Осипов, детский, комедия, спорт, 1971) [DVDRip, Не требуется] "Тигры" на льду (Валентин Козачков, Альберт Осипов, детский, комедия, спорт, 1971) [DVDRip, Не требуется] " />

Аплоадер: Админ, дата: 27-12-2012, 22:48, торрент скачан: 359 раз

Понравилась раздача? Посмотрите эти:
  • Дон Сезар де Базан (2 части из 2) (Ян Фрид, мюзикл, комедия, 1989) [DVDRip, ...
  • Где это видано, где это слыхано (Валентин Горлов, короткометражка, комедия, ...
  • Расмус-бродяга (2 части из 2) (Мария Муат, детский, приключения, 1978) [DVD ...
  • Вся королевская рать (3 части из 3) (Наум Ардашников, Александр Гуткович, д ...
  • Завтрак на траве (Николай Александрович, детский, комедия, 1979) [DVDRip, Н ...
  • Если есть паруса (Валентин Козачков, драма, 1969) [DVDRip, Не требуется]
  • Опекун (Эдгар Ходжикян, Альберт С. Мкртчян, комедия, 1970) [DVDRip, Не треб ...
  • Ночные забавы (2 части из 2. Реставрирован) (Владимир Краснопольский, Валер ...
  • Казаки-разбойники (Валентин Козачков, детский, приключения, 1979) [DVDRip, ...
  • Эти разные, разные, разные лица (Игорь Ильинский, Юрий Сааков, комедия, при ...
  • Пустыня (Михаил Кац, драма, 1991) [TVRip, Не требуется]
  • Казаки-разбойники (Валентин Козачков, детский, приключения, 1979) [DVDRip, ...
  • Мы с Вулканом (Валентин Перов, детский, семейный, 1973) [TVRip, Не требуетс ...
  • Тень (Реставрация) (Надежда Кошеверова, фэнтези, драма, мелодрама, комедия, ...
  • Шельменко-денщик (Андрей Тутышкин, мюзикл, комедия, 1971) [DVDRip, Не требу ...
  • Приключения маленького папы (Дмитрий Крупко, детский, комедия, 1979) [DVDRi ...
  • Приморский бульвар (2 части из 2) (Александр Полынников, мюзикл, комедия, 1 ...
  • Почти смешная история (2 части из 2) (Петр Фоменко, мелодрама, комедия, 197 ...
  • Солдатки (Валентин Козачков, драма, 1977) [DVDRip, Не требуется]
  • Умные вещи (2 части из 2) (Анатолий Граник, детский, семейный, 1973) [DVDRi ...
  • Информация
    Посетители, находящиеся в группе Гости, не могут оставлять комментарии к данной публикации.