вход на сайт

Имя пользователя :
Пароль :

Восстановление пароля Регистрация
Пропавшая грамота (Борис Ивченко, фэнтези, комедия, 1972) [DVDRip, Профессиональный (полное дублирование)+украинский]
Рейтинг:
(голосов: 1)



[img]{THEME}/images/logopost.png[/img]



Пропавшая грамота

Год выпуска: 1972
Страна: СССР
Производство: Студия Довженко
Жанр: фэнтези, комедия

Режиссёр: Борис Ивченко
В ролях: Иван Миколайчук, Василий Хорошко, Галина Долгозвяга, Федор Стригун, Дмитрий Капка, Лидия Вакула, Земфира Цахилова, Лидия Билозерова, Ю. Хаджиев, Мария Капнист

Перевод: Профессиональный (полное дублирование)+украинский
Субтитры: Отсутствуют

Описание:
Героическая народная комедия, где с лукавой усмешкой задорным юмором показан полный приключения путь казака Василия и запорожца Андрея с гетманской грамотой в Петербург к царице и их благополучное возвращение в родную Диканьку.


Дополнительно:
MediaInfo ▼Text
Общее
Полное имя :D:. РАЗДАЧАПропавшая грамотаpropala_gramota.avi
Формат :AVI
Размер :1.47 GiB
Продолжительность :01:14:11.080
Общий поток :2 842 Kbps
Программа кодирования :VirtualDubModRus 1.5.10.2 (build 2542/release)
Библиотека кодирования :VirtualDubMod build 2542/release

Видео
Идентификатор :0
Формат :MPEG-4 Visual
Параметр BVOP формата :1
Параметр Qpel формата :No
Параметр GMC формата :0
Параметр Matrix формата :Default (H.263)
Идентификатор кодека :DX50
Продолжительность :1h 14mn 11s 80ms
Битрейт :2 572 Kbps
Ширина :720 pixels
Высота :560 pixels
Соотношение сторон :1.286
Частота кадров :25.000 fps
Глубина цвета :8 bits
Подвыборка цветности :4:2:0
Цветовое пространство :YUV
Тип развертки :Progressive
Бит/(Пиксели*Кадры) :0.255
Размер потока :1.33 GiB (90%)
Библиотека кодирования :DivX503b2676p

Аудио #1
Идентификатор :1
Формат :MPEG Audio
Идентификатор кодека :55
Продолжительность :01:14:10.961
Вид битрейта :Constant
Битрейт :128 Kbps
Канал(ы) :2 channels
Частота :48.0 KHz
Метод сжатия :Lossy
Размер потока :67.9 MiB (5%)

Аудио #2
Идентификатор :2
Формат :MPEG Audio
Идентификатор кодека :55
Продолжительно
3f7d1b86d7d0973aa38046911385fb2baf44eeceПропавшая грамота (Борис Ивченко, фэнтези, комедия, 1972) [DVDRip, Профессиональный (полное дублирование)+украинский] Пропавшая грамота (Борис Ивченко, фэнтези, комедия, 1972) [DVDRip, Профессиональный (полное дублирование)+украинский] " />

Аплоадер: Админ, дата: 22-12-2012, 19:34, торрент скачан: 359 раз

Понравилась раздача? Посмотрите эти:
  • Геркус Мантас (2 части из 2) (Марионас Гедрис, драма, 1972) [SATRip, Профес ...
  • Айрик (Генрих Малян, драма, семейный, 1972) [DVDRip, Профессиональный (пол ...
  • Мы и наши горы (Генрих Малян, драма, комедия, 1969) [DVDRip, Профессиональн ...
  • Кукарача (Кети Долидзе, Сико Долидзе, драма, 1982) [DVDRip, Профессиональны ...
  • Тоска (Фрунзе Довлатян, драма, 1990) [DVDRip, Профессиональный (полное дубл ...
  • Украденный поезд (Владимир Янчев, драма, 1971) [DVDRip, Профессиональный (п ...
  • Пакет (Владимир Назаров, комедия, приключения, семейный, 1965) [DVDRip, Не ...
  • Двенадцать месяцев (2 части из 2) (Анатолий Граник, фэнтези, семейный, 1972 ...
  • Иван да Марья (Борис Рыцарев, фэнтези, мелодрама, комедия, семейный, музыка ...
  • Карнавал (2 части из 2) (Татьяна Лиознова, мюзикл, комедия, 1981) [DVDRip, ...
  • Тропой бескорыстной любви (Агаси Бабаян, драма, 1972) [DVDRip, Не требуется ...
  • Черная гора (Александр Згуриди, драма, семейный, 1972) [DVDRip, Профессиона ...
  • Чайка (Юлий Карасик, драма, 1972) [DVDRip, Не требуется]
  • Подарок чёрного колдуна (Борис Рыцарев, фэнтези, приключения, семейный, 197 ...
  • Табачный капитан (Игорь Усов, мюзикл, комедия, история, 1972) [DVDRip, Не т ...
  • Майская ночь, или Утопленница (Александр Роу, фэнтези, комедия, 1952) [DVDR ...
  • Слуги дьявола на Чёртовой мельнице (Александр Лейманис, комедия, приключени ...
  • ЧП – Чрезвычайное происшествие (2 части из 2-х) (Виктор Ивченко, боевик, 19 ...
  • Шансы есть / Chances Are (Эмиль Ардолино, фэнтези, мелодрама, комедия, 1989 ...
  • Чудак-человек (Владимир Кочетов, комедия, 1962) [DVDRip, Не требуется]
  • Информация
    Посетители, находящиеся в группе Гости, не могут оставлять комментарии к данной публикации.