вход на сайт

Имя пользователя :
Пароль :

Восстановление пароля Регистрация
Эскадрон гусар летучих (Никита Хубов, Станислав Ростоцкий, военный, 1980) [DVDRip, Не требуется]
Рейтинг:
(голосов: 1)



[img]{THEME}/images/logopost.png[/img]



Эскадрон гусар летучих

Год выпуска: 1980
Страна: СССР
Производство: Студия Горького
Жанр: военный

Режиссёр: Никита Хубов, Станислав Ростоцкий
В ролях: Андрей Ростоцкий, Марина Шиманская, Лидия Кузнецова, Евгений Лебедев, Юрий Рычков, Николай Ерёменко мл., Андрей Семин, Александр Карин, Александр Зимин, Владимир Мащенко

Перевод: Не требуется
Субтитры: Отсутствуют

Описание:
Денис Давыдов — поэт и герой, человек, еще при жизни ставший легендой, буквально покорил свое поколение. Пушкин, Вяземский, Жуковский, Баратынский и многие другие поэты воспевали в своих стихах военный и поэтический талант, огромное обаяние и прямодушноеблагородство, отчаянную храбрость и энергию неудержимого на выдумки гусара и партизана, героя славного и бурного для России времени.


Дополнительно:
MediaInfo ▼Text
Общее
Полное имя :K:Эскадрон гусар летучихЭскадрон гусар летучих.avi
Формат :AVI
Размер :1.37 GiB
Продолжительность :02:37:37.920
Общий поток :1 242 Kbps
Программа кодирования :VirtualDubMod 1.5.10.1 (build 2439/release)
Библиотека кодирования :VirtualDub build 28191/release

Видео
Идентификатор :0
Формат :MPEG-4 Visual
Профиль формата :Advanced [email protected]
Параметр BVOP формата :1
Параметр Qpel формата :No
Параметр GMC формата :0
Параметр Matrix формата :Default (H.263)
Идентификатор кодека :XVID
Продолжительность :2h 37mn 37s 920ms
Битрейт :1 072 Kbps
Ширина :640 pixels
Высота :304 pixels
Соотношение сторон :2.105
Частота кадров :25.000 fps
Глубина цвета :8 bits
Подвыборка цветности :4:2:0
Цветовое пространство :YUV
Тип развертки :Progressive
Бит/(Пиксели*Кадры) :0.220
Размер потока :1.18 GiB (86%)
Библиотека кодирования :XviD0041

Аудио #1
Идентификатор :1
Формат :MPEG Audio
Идентификатор кодека :55
Продолжительность :02:37:37.166
Вид битрейта :Variable
Битрейт :160 Kbps
Канал(ы) :2 channels
Частота :48.0 KHz
Метод сжатия :Lossy
Размер потока :180 MiB (13%)Тех. данные:
Качество:DVD
dc45a36d7b1fb4bb978eb7a2cc49a0fc83416c90Эскадрон гусар летучих (Никита Хубов, Станислав Ростоцкий, военный, 1980) [DVDRip, Не требуется] Эскадрон гусар летучих (Никита Хубов, Станислав Ростоцкий, военный, 1980) [DVDRip, Не требуется] " />

Аплоадер: Админ, дата: 22-12-2012, 19:31, торрент скачан: 359 раз

Понравилась раздача? Посмотрите эти:
  • Жаворонок (Никита Курихин, Леонид Менакер, драма, военный, 1964) [DVDRip, Н ...
  • Доживем до понедельника (Станислав Ростоцкий, драма, 1968) [DVDRip, Не треб ...
  • Бой под Соколом (Александр Разумный, военный, 1942) [DVDRip, Не требуется]
  • "Мерседес" уходит от погони (Юрий Ляшенко, военный, 1980) [DVDRip, Не требу ...
  • Зимородок (Вячеслав Никифоров, военный, 1972) [DVDRip, Не требуется]
  • Два гусара (Вячеслав Криштофович, мелодрама, 1984) [DVDRip, Не требуется]
  • Гражданин Лёшка (Виктор Крючков, комедия, 1980) [DVDRip, Не требуется]
  • Шел четвертый год войны... (Георгий Николаенко, военный, 1983) [DVDRip, Не ...
  • Призрак (Никита Орлов, боевик, триллер, 1991) [TVRip, Не требуется]
  • Дело было в Пенькове (Станислав Ростоцкий, драма, мелодрама, 1957) [DVDRip, ...
  • Дамы и гусары (Анатолий Ниточкин, Александра Ремизова, комедия, 1976) [DVDR ...
  • Лес (Владимир Мотыль, драма, 1980) [DVDRip, Не требуется]
  • Комиссар (Александр Аскольдов, драма, военный, 1967) [DVDRip, Не требуется] ...
  • Сватовство гусара (Светлана Дружинина, мюзикл, мелодрама, комедия, 1979) [D ...
  • Родина зовет (Александр Мачерет, военный, 1936) [DVDRip, Не требуется]
  • Адъютант его превосходительства (5 частей из 5) (Евгений Ташков, мелодрама, ...
  • Непобедимый (Юрий Борецкий, боевик, 1983) [DVDRip, Не требуется]
  • Славный малый (Борис Барнет, военный, 1943) [DVDRip, Не требуется]
  • Сибириада (4 части из 4) (Андрей Кончаловский, драма, военный, история, 197 ...
  • Пропало лето (Ролан Быков, Никита Орлов, комедия, семейный, 1963) [DVDRip, ...
  • Проделки в старинном духе (Александр Панкратов, комедия, 1986) [DVDRip, Не ...
  • Красная площадь (Василий Ордынский, драма, военный, 1971) [DVDRip, Не требу ...
  • Эскадрон гусар летучих (Станислав Ростоцкий. приключения,исторический. 2 се ...
  • Зверобой (2 части из 2) (Андрей Ростоцкий, приключения, 1990) [DVDRip, Не т ...
  • Мичман Панин (Михаил Швейцер, приключения, военный, история, 1960) [DVDRip, ...
  • Информация
    Посетители, находящиеся в группе Гости, не могут оставлять комментарии к данной публикации.