вход на сайт

Имя пользователя :
Пароль :

Восстановление пароля Регистрация
Черная гора (Александр Згуриди, драма, семейный, 1972) [DVDRip, Профессиональный (полное дублирование)]
Рейтинг:
(голосов: 1)



[img]{THEME}/images/logopost.png[/img]



Черная гора

Год выпуска: 1972
Страна: Индия, СССР
Производство: Центрнаучфильм
Жанр: драма, семейный

Режиссёр: Александр Згуриди
В ролях: Райман Паша, Принс Прадип, Ходжа Ахмад Аббас

Перевод: Профессиональный (полное дублирование)
Субтитры: Отсутствуют

Описание:
Когда-то, очень давно, в Индии обитало огромное стадо слонов во главе с вожаком Черная гора. После длительной засухи один из слонов впал в бешенство… Первой жертвой стала девочка… И тогда люди устроили охоту на слонов. Черная гора попал в плен. Но в скоре у него появился друг — мальчик Ману…


Дополнительно:
MediaInfo ▼Text
Общее
Полное имя :L:Черная гораЧерная гора.avi
Формат :AVI
Размер :2.13 GiB
Продолжительность :01:23:14.280
Общий поток :3 671 Kbps
Программа кодирования :VirtualDubMod 1.5.10.2 (build 2540/release)
Библиотека кодирования :VirtualDubMod build 2540/release

Видео
Идентификатор :0
Формат :MPEG-4 Visual
Профиль формата :Advanced [email protected]
Параметр BVOP формата :2
Параметр Qpel формата :Yes
Параметр GMC формата :3
Параметр Matrix формата :Default (H.263)
Идентификатор кодека :XVID
Продолжительность :1h 23mn 14s 280ms
Битрейт :3 530 Kbps
Ширина :720 pixels
Высота :544 pixels
Соотношение сторон :1.324
Частота кадров :25.000 fps
Глубина цвета :8 bits
Подвыборка цветности :4:2:0
Цветовое пространство :YUV
Тип развертки :Progressive
Бит/(Пиксели*Кадры) :0.361
Размер потока :2.05 GiB (96%)
Библиотека кодирования :XviD0047

Аудио #1
Идентификатор :1
Формат :MPEG Audio
Идентификатор кодека :55
Продолжительность :01:23:14.256
Вид битрейта :Constant
Битрейт :128 Kbps
Канал(ы) :2 channels
Частота :48.0 KHz
Метод сжатия :Lossy
Размер потока :76.2 MiB (3%)Тех. данные:
Качество:DVDRip
Продолжительность:01:23:10 час

Формат: AVI
Видео кодек: XviD
Аудио кодек: MPA1L3
Видео: 720 x 544 (4:3), 25.000 fps, 3 530 Kbps, 0.361 bit/pixel
Аудио : 48.0 KHz, , 2 cha
bc8b150fd47778bed36511809c3cfb5718c514fdЧерная гора (Александр Згуриди, драма, семейный, 1972) [DVDRip, Профессиональный (полное дублирование)] Черная гора (Александр Згуриди, драма, семейный, 1972) [DVDRip, Профессиональный (полное дублирование)] " />

Аплоадер: Админ, дата: 18-12-2012, 19:48, торрент скачан: 359 раз

Понравилась раздача? Посмотрите эти:
  • Геркус Мантас (2 части из 2) (Марионас Гедрис, драма, 1972) [SATRip, Профес ...
  • Айрик (Генрих Малян, драма, семейный, 1972) [DVDRip, Профессиональный (пол ...
  • Зимородок (Вячеслав Никифоров, военный, 1972) [DVDRip, Не требуется]
  • Гикор (Сергей Исраелян, драма, семейный, 1982) [DVDRip, Профессиональный (п ...
  • Четвертый (Александр Столпер, драма, 1972) [DVDRip, Не требуется]
  • Украденный поезд (Владимир Янчев, драма, 1971) [DVDRip, Профессиональный (п ...
  • Ох, уж эта Настя! (Юрий Победоносцев, семейный, 1972) [DVDRip, Не требуется ...
  • Мальчик с пальчик (Гунар Пиесис, фэнтези, семейный, 1985) [DVDRip, Професси ...
  • Черная чайка (Григорий Колтунов, приключения, 1962) [DVDRip, Не требуется]
  • Пропавшая грамота (Борис Ивченко, фэнтези, комедия, 1972) [DVDRip, Професси ...
  • Чайка (Юлий Карасик, драма, 1972) [DVDRip, Не требуется]
  • Чудак из пятого «Б» (Илья Фрэз, комедия, семейный, 1972) [DVDRip, Не требуе ...
  • Хождение за три моря / Pardesi (2 части из 2) (Ходжа Ахмад Аббас, Василий П ...
  • Слуги дьявола на Чёртовой мельнице (Александр Лейманис, комедия, приключени ...
  • Рикки-Тикки-Тави (Александр Згуриди, семейный, 1975) [DVDRip, Не требуется] ...
  • Приключения маленького Мука (Елизавета Кимягарова, мюзикл, семейный, 1983) ...
  • Мальчишки с улицы Пал / A pal-utcai fiuk (Золтан Фабри, драма, 1968) [DVDRi ...
  • Пират Черная борода / Blackbeard, the Pirate (Рауль Уолш, приключения, 1952 ...
  • Братья по крови / Blutsbruder (Вернер В. Валльрот, драма, вестерн, 1975) [D ...
  • Белый клык (Александр Згуриди, приключения, 1947) [DVDRip, Не требуется]
  • Информация
    Посетители, находящиеся в группе Гости, не могут оставлять комментарии к данной публикации.