вход на сайт

Имя пользователя :
Пароль :

Восстановление пароля Регистрация
Тропой бескорыстной любви (Агаси Бабаян, драма, 1972) [DVDRip, Не требуется]
Рейтинг:
(голосов: 1)



[img]{THEME}/images/logopost.png[/img]



Тропой бескорыстной любви

Год выпуска: 1972
Страна: СССР
Производство: Центрнаучфильм
Жанр: драма

Режиссёр: Агаси Бабаян
В ролях: Дмитрий Орловский, Аркадий Толбузин, Виктор Коваль, Георгий Рыбаков, Феликс Сергеев, Борис Сичкин, Сергей Юртайкин, Е. Зосимов, Владимир Коваль

Перевод: Не требуется
Субтитры: Отсутствуют

Описание:
Вместе с лесником Михалычем и рысью Кунаком, его питомцем и верным другом, мы пройдем по потаенным лесным тропкам, и авторы фильма дадут нам возможность `подсмотреть` немало забавного и поучительного из жизни лесных обитателей.


Дополнительно:
MediaInfo ▼Text
Общее
Полное имя :J:Тропой бескорыстной любвиТропой бескорыстной любви.DVDRip.avi
Формат :AVI
Размер :1.09 GiB
Продолжительность :01:13:19.136
Общий поток :2 134 Kbps
Программа кодирования :VirtualDubModRus 1.5.10.2 (build 2542/release)
Библиотека кодирования :VirtualDubMod build 2542/release

Видео
Идентификатор :0
Формат :MPEG-4 Visual
Параметр BVOP формата :1
Параметр Qpel формата :No
Параметр GMC формата :0
Параметр Matrix формата :Default (H.263)
Идентификатор кодека :DX50
Продолжительность :1h 13mn 19s 120ms
Битрейт :1 677 Kbps
Ширина :704 pixels
Высота :528 pixels
Соотношение сторон :1.333
Частота кадров :25.000 fps
Глубина цвета :8 bits
Подвыборка цветности :4:2:0
Цветовое пространство :YUV
Тип развертки :Progressive
Бит/(Пиксели*Кадры) :0.180
Размер потока :879 MiB (79%)
Библиотека кодирования :DivX503b2676p

Аудио #1
Идентификатор :1
Формат :AC-3
Формат/Информация :Audio Coding 3
Идентификатор кодека :2000
Продолжительность :01:13:19.136
Вид битрейта :Constant
Битрейт :448 Kbps
Канал(ы) :6 channels
Расположение каналов :Front: L C R, Side: L R, LFE
Частота :48.0 KHz
Битовая глубина :16 bits
Метод сжатия :Lossy
Размер потока :235 MiB (21%)



Тех. данные:
Качество:DVDRip
Продолжительность:01:13:
68858e3e29b7055f16393b5e830c136ccdabc806Тропой бескорыстной любви (Агаси Бабаян, драма, 1972) [DVDRip, Не требуется] Тропой бескорыстной любви (Агаси Бабаян, драма, 1972) [DVDRip, Не требуется] " />

Аплоадер: Админ, дата: 18-12-2012, 19:33, торрент скачан: 359 раз

Понравилась раздача? Посмотрите эти:
  • Журавушка (Николай Москаленко, драма, мелодрама, 1968) [DVDRip, Не требуетс ...
  • Айрик (Генрих Малян, драма, семейный, 1972) [DVDRip, Профессиональный (пол ...
  • Нейтральные воды (Владимир Беренштейн, драма, 1968) [DVDRip, Не требуется]
  • Дама с собачкой (Иосиф Хейфиц, драма, мелодрама, 1959) [DVDRip, Не требуетс ...
  • Выстрел (Наум Трахтенберг, драма, 1966) [DVDRip, Не требуется]
  • Четвертый (Александр Столпер, драма, 1972) [DVDRip, Не требуется]
  • Конец "Сатурна" (Виллен Азаров, Мосфильм, 1967) [DVDRip, Не требуется]
  • Бой после победы (2 части из 2) (Виллен Азаров, триллер, военный, 1972) [DV ...
  • Ох, уж эта Настя! (Юрий Победоносцев, семейный, 1972) [DVDRip, Не требуется ...
  • Двенадцать месяцев (2 части из 2) (Анатолий Граник, фэнтези, семейный, 1972 ...
  • Рысь выходит на тропу (Агаси Бабаян, комедия, 1983) [DVDRip, Не требуется]
  • Чайка (Юлий Карасик, драма, 1972) [DVDRip, Не требуется]
  • Табачный капитан (Игорь Усов, мюзикл, комедия, история, 1972) [DVDRip, Не т ...
  • Путь к причалу (Георгий Данелия, драма, 1963) [DVDRip, Не требуется]
  • Тропой бескорыстной любви (Агаси Бабаян, Приключения, 1971) [DVDRip, не тр ...
  • Рысь выходит на тропу (Агаси Бабаян, Киноповесть, 1982) [DVDRip, не требует ...
  • Рысь возвращается (Агаси Бабаян, фильм о животных, приключения, 1986) [TVRi ...
  • Донская повесть (Владимир Фетин, драма, 1964) [DVDRip, Не требуется]
  • Дерсу Узала (Агаси Бабаян, приключения, 1961) [DVDRip, Не требуется]
  • Мексиканец (Владимир Каплуновский, драма, 1955) [DVDRip, Не требуется]
  • Информация
    Посетители, находящиеся в группе Гости, не могут оставлять комментарии к данной публикации.