вход на сайт

Имя пользователя :
Пароль :

Восстановление пароля Регистрация
Рысь выходит на тропу (Агаси Бабаян, комедия, 1983) [DVDRip, Не требуется]
Рейтинг:
(голосов: 1)



[img]{THEME}/images/logopost.png[/img]



Рысь выходит на тропу

Год выпуска: 1983
Страна: СССР
Производство: Центрнаучфильм
Жанр: комедия

Режиссёр: Агаси Бабаян
В ролях: Дмитрий Орловский, Филимон Сергеев, Сергей Юртайкин, Игорь Кашинцев, Евгений Москалев, Анатолий Харланов, Игорь Чуриков

Перевод: Не требуется
Субтитры: Отсутствуют

Описание:
Продолжение фильма «Тропой бескорыстной любви». Новая история о жизни и приключениях выросшего рысенка Кунака, продолжающего жить вместе с лесником Михалычем.


Дополнительно:
MediaInfo ▼Text
Общее
Полное имя :J:Рысь выходит на тропуРысь выходит на тропу.DVDRip.avi
Формат :AVI
Размер :1.09 GiB
Продолжительность :01:07:35.080
Общий поток :2 316 Kbps
Программа кодирования :VirtualDubModRus 1.5.10.2 (build 2542/release)
Библиотека кодирования :VirtualDubMod build 2542/release

Видео
Идентификатор :0
Формат :MPEG-4 Visual
Параметр BVOP формата :1
Параметр Qpel формата :No
Параметр GMC формата :0
Параметр Matrix формата :Default (H.263)
Идентификатор кодека :DX50
Продолжительность :1h 7mn 35s 80ms
Битрейт :1 859 Kbps
Ширина :704 pixels
Высота :528 pixels
Соотношение сторон :1.333
Частота кадров :25.000 fps
Глубина цвета :8 bits
Подвыборка цветности :4:2:0
Цветовое пространство :YUV
Тип развертки :Progressive
Бит/(Пиксели*Кадры) :0.200
Размер потока :899 MiB (80%)
Библиотека кодирования :DivX503b2676p

Аудио #1
Идентификатор :1
Формат :AC-3
Формат/Информация :Audio Coding 3
Идентификатор кодека :2000
Продолжительность :01:07:35.072
Вид битрейта :Constant
Битрейт :448 Kbps
Канал(ы) :6 channels
Расположение каналов :Front: L C R, Side: L R, LFE
Частота :48.0 KHz
Битовая глубина :16 bits
Метод сжатия :Lossy
Размер потока :217 MiB (19%)Тех. данные:
Качество:DVDRip
Продолжительность:01:07:30 час

Формат: AVI
Видео кодек: DivX
Аудио кодек: AC3
Видео: 704 x 528 (4:3),
9e11c4767ced9b13d31ded5b9cb553a05f133b31Рысь выходит на тропу (Агаси Бабаян, комедия, 1983) [DVDRip, Не требуется] Рысь выходит на тропу (Агаси Бабаян, комедия, 1983) [DVDRip, Не требуется] " />

Аплоадер: Админ, дата: 18-12-2012, 19:29, торрент скачан: 359 раз

Понравилась раздача? Посмотрите эти:
  • На подмостках сцены (Константин Юдин, драма, комедия, 1956) [DVDRip, Не тре ...
  • Военно-полевой роман (Петр Тодоровский, драма, мелодрама, 1983) [DVDRip, Не ...
  • Приключения Толи Клюквина (Виктор Эйсымонт, комедия, семейный, 1964) [DVDRi ...
  • Пакет (Владимир Назаров, комедия, приключения, семейный, 1965) [DVDRip, Не ...
  • Печёнка (Арман Манарян, короткометражка, комедия, 1962) [DVDRip, Не требует ...
  • Сватовство гусара (Светлана Дружинина, мюзикл, мелодрама, комедия, 1979) [D ...
  • Тропой бескорыстной любви (Агаси Бабаян, драма, 1972) [DVDRip, Не требуется ...
  • Небывальщина (Сергей Овчаров, комедия, 1983) [DVDRip, Не требуется]
  • Непобедимый (Юрий Борецкий, боевик, 1983) [DVDRip, Не требуется]
  • Бабушки надвое сказали (Валерий Харченко, Юрий Клебанов, комедия, 1979) [DV ...
  • Табачный капитан (Игорь Усов, мюзикл, комедия, история, 1972) [DVDRip, Не т ...
  • Сотрудник ЧК (Борис Волчек, боевик, история, 1963) [DVDRip, Не требуется]
  • Старомодная комедия (Эра Савельева, Татьяна Березанцева, мелодрама, 1978) [ ...
  • Похождения Насреддина (Наби Ганиев, комедия, 1946) [DVDRip, Не требуется]
  • Дерсу Узала ( Агаси Бабаян,приключения,1961)[DVDRip,оригинал]
  • Тропой бескорыстной любви (Агаси Бабаян, Приключения, 1971) [DVDRip, не тр ...
  • Рысь выходит на тропу (Агаси Бабаян, Киноповесть, 1982) [DVDRip, не требует ...
  • Рысь возвращается (Агаси Бабаян, фильм о животных, приключения, 1986) [TVRi ...
  • Хозяин и слуга (Дмитрий Кесаянц, короткометражка, комедия, 1963) [DVDRip, Н ...
  • Взрослые дети (Виллен Азаров, драма, комедия, 1962) [DVDRip, Не требуется] ...
  • Шофер поневоле (Надежда Кошеверова, комедия, 1958) [DVDRip, Не требуется]
  • Гений (2 части из 2) (Виктор Сергеев, Комедия, криминал, 1991) [DVDRip, Не ...
  • Дерсу Узала (Агаси Бабаян, приключения, 1961) [DVDRip, Не требуется]
  • К Черному морю (Андрей Тутышкин, мелодрама, комедия, 1957) [DVDRip, Не треб ...
  • Карантин (Илья Фрэз, комедия, 1983) [DVDRip, Не требуется]
  • Информация
    Посетители, находящиеся в группе Гости, не могут оставлять комментарии к данной публикации.