вход на сайт

Имя пользователя :
Пароль :

Восстановление пароля Регистрация
Свадьба (Исидор Анненский, комедия, 1944) [DVDRip, Не требуется]
Рейтинг:
(голосов: 1)



[img]{THEME}/images/logopost.png[/img]



Свадьба

Год выпуска: 1944
Страна: СССР
Производство: Мосфильм, Тбилисская киностудия
Жанр: комедия

Режиссёр: Исидор Анненский
В ролях: Алексей Грибов, Фаина Раневская, Зоя Фёдорова, Эраст Гарин, Николай Коновалов, Михаил Яншин, Сергей Мартинсон, Вера Марецкая, Осип Абдулов, Николай Плотников

Перевод: Не требуется
Субтитры: Отсутствуют

Описание:
По одноименному водевилю А. П. Чехова. Мещане Жигаловы, у которых на выданье дочь Даша, к ужасу своему узнают, что чиновник Апломбов, все лето ухаживавший за Дашей, ежедневно обедавший у них и зарекомендовавший себя женихом, жениться вовсе не собирается.


Дополнительно:
MediaInfo ▼Text
Общее
Полное имя :L:3.РаздачаСвадьбаsvadba.avi
Формат :AVI
Размер :1.37 GiB
Продолжительность :01:00:57.560
Общий поток :3 213 Kbps
Программа кодирования :VirtualDubMod 1.5.4.1 (build 2178/release)

Видео
Идентификатор :0
Формат :MPEG-4 Visual
Профиль формата :Advanced [email protected]
Параметр BVOP формата :1
Параметр Qpel формата :No
Параметр GMC формата :0
Параметр Matrix формата :Custom
Идентификатор кодека :XVID
Продолжительность :1h 0mn 57s 560ms
Битрейт :3 012 Kbps
Ширина :624 pixels
Высота :464 pixels
Соотношение сторон :1.345
Частота кадров :25.000 fps
Глубина цвета :8 bits
Подвыборка цветности :4:2:0
Цветовое пространство :YUV
Тип развертки :Progressive
Бит/(Пиксели*Кадры) :0.416
Размер потока :1.28 GiB (94%)
Библиотека кодирования :XviD0050

Аудио #1
Идентификатор :1
Формат :MPEG Audio
Идентификатор кодека :55
Продолжительность :01:00:57.312
Вид битрейта :Constant
Битрейт :192 Kbps
Канал(ы) :2 channels
Частота :48.0 KHz
Метод сжатия :Lossy
Размер потока :83.7 MiB (6%)Тех. данные:
Качество:DVDRip
Продолжительность:01:00:50 час

Формат: AVI
Видео кодек: XviD
Аудио кодек: MPA1L3
Видео: 624 x 464 (4:3), 25.000 fps, 3 012 Kbps, 0.416 bit/pixel
Аудио : 48.0 KHz, , 2 channels (), 192 Kbps



049ef21d7bb937419760403ce1b10f8eba193acaСвадьба (Исидор Анненский, комедия, 1944) [DVDRip, Не требуется] Свадьба (Исидор Анненский, комедия, 1944) [DVDRip, Не требуется] " />

Аплоадер: Админ, дата: 17-12-2012, 18:13, торрент скачан: 359 раз

Понравилась раздача? Посмотрите эти:
  • Подранки (Николай Губенко, драма, 1976) [DVDRip, Не требуется]
  • На подмостках сцены (Константин Юдин, драма, комедия, 1956) [DVDRip, Не тре ...
  • Аленка (Борис Барнет, комедия, 1961) [DVDRip, Не требуется]
  • Девушка без адреса (Эльдар Рязанов, мелодрама, комедия, 1957) [DVDRip, Не т ...
  • Человек в футляре (Исидор Анненский, драма, комедия, 1939) [DVDRip, Не треб ...
  • Старшина (Николай Кошелев, драма, 1979) [DVDRip, Не требуется]
  • Путевка в Жизнь (Николай Экк, драма, 1931) [DVDRip, Не требуется]
  • Сапоги (Владимир Немоляев, короткометражка, драма, комедия, 1957) [DVDRip, ...
  • Завтрак на траве (Николай Александрович, детский, комедия, 1979) [DVDRip, Н ...
  • Драма (Герман Ливанов, короткометражка, комедия, 1960) [DVDRip, Не требуетс ...
  • Моя любовь (Владимир Корш-Саблин, мюзикл, мелодрама, комедия, 1940) [DVDRip ...
  • Левша (Сергей Овчаров, драма, комедия, 1986) [DVDRip, Не требуется]
  • Мы с вами где-то встречались (Николай Досталь, Андрей Тутышкин, комедия, 19 ...
  • А.П. Чехов. Русская литература в произведениях кинематографа (К.Юдин,С.Спло ...
  • Небывальщина (Сергей Овчаров, комедия, 1983) [DVDRip, Не требуется]
  • Карусель (Михаил Швейцер, комедия, 1970) [DVDRip, Не требуется]
  • Спортлото-82 (Леонид Гайдай, комедия, приключения, 1982) [DVDRip, Не требуе ...
  • Шельменко-денщик (Андрей Тутышкин, мюзикл, комедия, 1971) [DVDRip, Не требу ...
  • Пропало лето (Ролан Быков, Никита Орлов, комедия, семейный, 1963) [DVDRip, ...
  • Пятый океан (Исидор Анненский, драма, 1940) [DVDRip, Не требуется]
  • Первый троллейбус (Исидор Анненский, Мелодрама, 1963) [DVDRip, Оригинал]
  • А.П. Чехов. Русская литература в произведениях кинематографа: Человек в фут ...
  • Хозяйка гостиницы (Михаил Названов, комедия, 1956) [DVDRip, Не требуется]
  • Анна на шее (Исидор Анненский, драма, история, 1954) [DVDRip, Не требуется] ...
  • Шведская спичка (Константин Юдин, комедия, детектив, 1955) [DVDRip, Не треб ...
  • Информация
    Посетители, находящиеся в группе Гости, не могут оставлять комментарии к данной публикации.