вход на сайт

Имя пользователя :
Пароль :

Восстановление пароля Регистрация
Сватовство гусара (Светлана Дружинина, мюзикл, мелодрама, комедия, 1979) [DVDRip, Не требуется]
Рейтинг:
(голосов: 1)



[img]{THEME}/images/logopost.png[/img]



Сватовство гусара

Год выпуска: 1979
Страна: СССР
Производство: Мосфильм
Жанр: мюзикл, мелодрама, комедия

Режиссёр: Светлана Дружинина
В ролях: Елена Коренева, Михаил Боярский, Александр Баринов, О. Голова, Наталья Иванова, Сергей Иванов, Анатолий Мукасей, Н. Неядлов, Андрей Попов, Т. Транквелицкая

Перевод: Не требуется
Субтитры: Отсутствуют

Описание:
Пламенно влюбившись в дочку ростовщика, лихой гусар не мог и вообразить, до какой степени жаден будущий тесть. Но гусар оказался не лыком шит и обвел-таки старого сластолюбца и скрягу вокруг пальца, добыв деньги… у него самого.


Дополнительно:
MediaInfo ▼Text
Общее
Полное имя :D:. РАЗДАЧАСватовство гусараСватовство гусара (1979) DVDRip.avi
Формат :AVI
Размер :1.08 GiB
Продолжительность :01:07:10.040
Общий поток :2 302 Kbps
Программа кодирования :VirtualDubModRus 1.5.10.2 (build 2542/release)
Библиотека кодирования :VirtualDubMod build 2542/release

Видео
Идентификатор :0
Формат :MPEG-4 Visual
Параметр BVOP формата :1
Параметр Qpel формата :No
Параметр GMC формата :0
Параметр Matrix формата :Default (H.263)
Идентификатор кодека :DX50
Продолжительность :1h 7mn 10s 40ms
Битрейт :2 101 Kbps
Ширина :688 pixels
Высота :512 pixels
Соотношение сторон :1.344
Частота кадров :25.000 fps
Глубина цвета :8 bits
Подвыборка цветности :4:2:0
Цветовое пространство :YUV
Тип развертки :Progressive
Бит/(Пиксели*Кадры) :0.239
Размер потока :1 009 MiB (91%)
Библиотека кодирования :DivX503b2676p

Аудио #1
Идентификатор :1
Формат :AC-3
Формат/Информация :Audio Coding 3
Идентификатор кодека :2000
Продолжительность :01:07:10.016
Вид битрейта :Constant
Битрейт :192 Kbps
Канал(ы) :2 channels
Расположение каналов :Front: L R
Частота :48.0 KHz
Битовая глубина :16 bits
Метод сжатия :Lossy
Размер потока :92.2 MiB (8%)Тех. данные:
Качество:DVDRip
Пр
9ac5e7bc08a046b99bfc7209ec33d1a2963814a8Сватовство гусара (Светлана Дружинина, мюзикл, мелодрама, комедия, 1979) [DVDRip, Не требуется] Сватовство гусара (Светлана Дружинина, мюзикл, мелодрама, комедия, 1979) [DVDRip, Не требуется] " />

Аплоадер: Админ, дата: 17-12-2012, 18:09, торрент скачан: 359 раз

Понравилась раздача? Посмотрите эти:
  • История кавалера де Грие и Манон Леско (Роман Виктюк, драма, мелодрама, 197 ...
  • Дон Сезар де Базан (2 части из 2) (Ян Фрид, мюзикл, комедия, 1989) [DVDRip, ...
  • Девушка без адреса (Эльдар Рязанов, мелодрама, комедия, 1957) [DVDRip, Не т ...
  • Два гусара (Вячеслав Криштофович, мелодрама, 1984) [DVDRip, Не требуется]
  • Покровские ворота (2 части из 2) (Михаил Козаков, мюзикл, драма, мелодрама, ...
  • По главной улице с оркестром (Петр Тодоровский, мюзикл, мелодрама, комедия, ...
  • Ах, водевиль, водевиль... (Георгий Юнгвальд-Хилькевич, мюзикл, комедия, 197 ...
  • Завтрак на траве (Николай Александрович, детский, комедия, 1979) [DVDRip, Н ...
  • Моя любовь (Владимир Корш-Саблин, мюзикл, мелодрама, комедия, 1940) [DVDRip ...
  • Мистер Икс (Юлий Хмельницкий, мюзикл, мелодрама, комедия, 1958) [DVDRip, Не ...
  • Мама (Элизабета Бостан, мюзикл, фэнтези, семейный, 1976) [DVDRip, Не требуе ...
  • Первая перчатка (Андрей Фролов, мюзикл, мелодрама, комедия, спорт, 1946) [D ...
  • Сватовство гусара (Светлана Дружинина, Комедия, мюзикл, 1979) [DVD5,оригина ...
  • Бабушки надвое сказали (Валерий Харченко, Юрий Клебанов, комедия, 1979) [DV ...
  • Табачный капитан (Игорь Усов, мюзикл, комедия, история, 1972) [DVDRip, Не т ...
  • Соловей (Надежда Кошеверова, мюзикл, семейный, 1979) [DVDRip, Не требуется] ...
  • Светлая личность (Александр Павловский, мюзикл, комедия, 1989) [DVDRip, Не ...
  • Табор уходит в небо (Эмиль Лотяну, мюзикл, драма, мелодрама, 1976) [DVDRip, ...
  • Стакан воды (Юлий Карасик, мелодрама, комедия, история, 1979) [DVDRip, Не т ...
  • Добряки (Карен Шахназаров, комедия, 1979) [DVDRip, Не требуется]
  • Информация
    Посетители, находящиеся в группе Гости, не могут оставлять комментарии к данной публикации.