вход на сайт

Имя пользователя :
Пароль :

Восстановление пароля Регистрация
Фантазеры (Исаак Магитон, И. Сафарова, детский, 1965) [DVDRip, Не требуется]
Рейтинг:
(голосов: 1)



[img]{THEME}/images/logopost.png[/img]



Фантазеры

Год выпуска: 1965
Страна: СССР
Производство: Студия Горького
Жанр: детский

Режиссёр: Исаак Магитон, И. Сафарова
В ролях: Яков Овчуков-Суворов, Олег Хренников, Олег Цуприков, Сергей Рыжов, Елена Новикова, Светлана Харитонова, Николай Граббе, Владимир Лебедев, Юрий Никулин, Лидия Королева

Перевод: Не требуется
Субтитры: Отсутствуют

Описание:
Герои этого фильма — юные фантазеры. Они никого не обманывают, просто придумывают необыкновенные истории, и сами в них верят.


Дополнительно:
MediaInfo ▼Text
Общее
Полное имя :J:1. РАЗДАЧАФантазерыФантазеры.avi
Формат :AVI
Размер :1.21 GiB
Продолжительность :01:02:50.520
Общий поток :2 758 Kbps
Программа кодирования :VirtualDubMod 1.5.10.2 (build 2542/release)
Библиотека кодирования :VirtualDubMod build 2542/release

Видео
Идентификатор :0
Формат :MPEG-4 Visual
Профиль формата :Advanced [email protected]
Параметр BVOP формата :2
Параметр Qpel формата :No
Параметр GMC формата :0
Параметр Matrix формата :Default (H.263)
Идентификатор кодека :XVID
Продолжительность :1h 2mn 50s 520ms
Битрейт :2 301 Kbps
Ширина :720 pixels
Высота :576 pixels
Соотношение сторон :1.328
Частота кадров :25.000 fps
Глубина цвета :8 bits
Подвыборка цветности :4:2:0
Цветовое пространство :YUV
Тип развертки :Progressive
Бит/(Пиксели*Кадры) :0.222
Размер потока :1.01 GiB (83%)
Библиотека кодирования :XviD0047

Аудио #1
Идентификатор :1
Формат :AC-3
Формат/Информация :Audio Coding 3
Идентификатор кодека :2000
Продолжительность :01:02:46.320
Вид битрейта :Constant
Битрейт :448 Kbps
Канал(ы) :2 channels
Расположение каналов :Front: L R
Частота :48.0 KHz
Битовая глубина :16 bits
Метод сжатия :Lossy
Размер потока :201 MiB (16%)Тех. данные:
Качество:DVDRip
Продолжительность:01:02:50 час

Формат: AVI
Видео кодек: XviD
da4bd21e157f9a2af064ad4ebf8cb1a36b767839Фантазеры (Исаак Магитон, И. Сафарова, детский, 1965) [DVDRip, Не требуется] Фантазеры (Исаак Магитон, И. Сафарова, детский, 1965) [DVDRip, Не требуется] " />

Аплоадер: Админ, дата: 12-12-2012, 18:48, торрент скачан: 359 раз

Понравилась раздача? Посмотрите эти:
  • Акваланги на дне (Евгений Шерстобитов, боевик, приключения, семейный, 1965) ...
  • Дни лётные (Николай Литус, Леонид Ризин, драма, 1965) [DVDRip, Не требуется ...
  • Дама с собачкой (Иосиф Хейфиц, драма, мелодрама, 1959) [DVDRip, Не требуетс ...
  • Тайна горного подземелья (Лев Мирский, детский, приключения, 1975) [DVDRip, ...
  • Таинственная находка (Борис Бунеев, детский, приключения, 1954) [DVDRip, Не ...
  • Ох, уж эта Настя! (Юрий Победоносцев, семейный, 1972) [DVDRip, Не требуется ...
  • Пакет (Владимир Назаров, комедия, приключения, семейный, 1965) [DVDRip, Не ...
  • Первоклассница (Илья Фрэз, детский, 1948) [DVDRip, Не требуется]
  • Гиперболоид инженера Гарина (Александр Гинцбург, фантастика, 1965) [DVDRip, ...
  • Завтрак на траве (Николай Александрович, детский, комедия, 1979) [DVDRip, Н ...
  • Ой, вы, гуси... (Лидия Боброва, Драма, 1991) [DVDRip, Не требуется]
  • Чайка (Юлий Карасик, драма, 1972) [DVDRip, Не требуется]
  • Печники (Виктор Храмов, драма, 1982) [DVDRip, Не требуется]
  • Сегодня – новый аттракцион (Надежда Кошеверова, Аполлинарий Дудко, комедия, ...
  • Стряпуха (Эдмонд Кеосаян, комедия, 1965) [DVDRip, Не требуется]
  • Уходя - уходи (Виктор Трегубович, комедия, 1978) [DVDRip, Не требуется]
  • Приключения маленького папы (Дмитрий Крупко, детский, комедия, 1979) [DVDRi ...
  • Умные вещи (2 части из 2) (Анатолий Граник, детский, семейный, 1973) [DVDRi ...
  • Голубые молнии (Исаак Шмарук, драма, приключения, 1978) [DVDRip, Не требует ...
  • За облаками – небо (Юрий Егоров, драма, 1973) [DVDRip, Не требуется]
  • Информация
    Посетители, находящиеся в группе Гости, не могут оставлять комментарии к данной публикации.