вход на сайт

Имя пользователя :
Пароль :

Восстановление пароля Регистрация
Крепостная актриса (Роман Тихомиров, мюзикл, 1964) [DVDRip, Не требуется]
Рейтинг:
(голосов: 1)



[img]{THEME}/images/logopost.png[/img]



Крепостная актриса

Год выпуска: 1964
Страна: СССР
Производство: Ленфильм
Жанр: мюзикл

Режиссёр: Роман Тихомиров
В ролях: Тамара Сёмина, Евгений Леонов, Сергей Филиппов, Алексей Смирнов, Александр Потапов, Л. Байтальский, Гликерия Богданова-Чеснокова, Станислав Фесюнов, Олег Летников, Светлана Мазовецкая

Перевод: Не требуется
Субтитры: Отсутствуют

Описание:
Настя Батманова — бывшая крепостная, красавица, стала прославленной актрисой придворного театра. Посмотрев мир, завоевав Париж, она возвращается домой и попадает в роскошные залы особняка Кутайсова, в окружение дам и гусаров. Там она сталкивается с любовными переживаниями…


Дополнительно:
MediaInfo ▼Text
Общее
Полное имя :J:1. РАЗДАЧАКрепостная актрисаКрепостная актриса.1963.DVDRip.avi
Формат :AVI
Размер :1.37 GiB
Продолжительность :01:34:28.667
Общий поток :2 073 Kbps
Программа кодирования :Lavf52.33.0

Видео
Идентификатор :0
Формат :MPEG-4 Visual
Профиль формата :[email protected]
Параметр BVOP формата :No
Параметр Qpel формата :No
Параметр GMC формата :0
Параметр Matrix формата :Default (H.263)
Идентификатор кодека :XVID
Продолжительность :1h 34mn 28s 667ms
Битрейт :1 839 Kbps
Ширина :720 pixels
Высота :336 pixels
Соотношение сторон :2.143
Частота кадров :24.000 fps
Глубина цвета :8 bits
Подвыборка цветности :4:2:0
Цветовое пространство :YUV
Тип развертки :Progressive
Бит/(Пиксели*Кадры) :0.317
Размер потока :1.21 GiB (89%)
Библиотека кодирования :XviD0050

Аудио #1
Идентификатор :1
Формат :AC-3
Формат/Информация :Audio Coding 3
Идентификатор кодека :2000
Продолжительность :01:34:18.624
Вид битрейта :Constant
Битрейт :224 Kbps
Канал(ы) :2 channels
Расположение каналов :Front: L R
Частота :48.0 KHz
Битовая глубина :16 bits
Метод сжатия :Lossy
Размер потока :151 MiB (11%)Тех. данные:
Качество:DVDRip
Продолжительность:&nb
33f33fd2231df488babb8926e8dafa746b867266Крепостная актриса (Роман Тихомиров, мюзикл, 1964) [DVDRip, Не требуется] Крепостная актриса (Роман Тихомиров, мюзикл, 1964) [DVDRip, Не требуется] " />

Аплоадер: Админ, дата: 11-12-2012, 19:41, торрент скачан: 359 раз

Понравилась раздача? Посмотрите эти:
  • Ко мне, Мухтар! (Семен Туманов, В. Тиунова, драма, 1964) [DVDRip, Не требуе ...
  • Каштанка (Роман Балаян, приключения, 1975) [DVDRip, Не требуется]
  • Приключения Толи Клюквина (Виктор Эйсымонт, комедия, семейный, 1964) [DVDRi ...
  • Моя любовь (Владимир Корш-Саблин, мюзикл, мелодрама, комедия, 1940) [DVDRip ...
  • Мистер Икс (Юлий Хмельницкий, мюзикл, мелодрама, комедия, 1958) [DVDRip, Не ...
  • Мама (Элизабета Бостан, мюзикл, фэнтези, семейный, 1976) [DVDRip, Не требуе ...
  • Летучая мышь (Реставрация) (Ян Фрид, мюзикл, комедия, 1978) [DVDRip, Профес ...
  • Князь Игорь (Роман Тихомиров, мюзикл, приключения, 1969) [DVDRip, Не требуе ...
  • Сватовство гусара (Светлана Дружинина, мюзикл, мелодрама, комедия, 1979) [D ...
  • Пиковая Дама (Роман Тихомиров, мюзикл, драма, 1961) [DVDRip, Не требуется]
  • Первая перчатка (Андрей Фролов, мюзикл, мелодрама, комедия, спорт, 1946) [D ...
  • Табачный капитан (Игорь Усов, мюзикл, комедия, история, 1972) [DVDRip, Не т ...
  • Трембита (Олег Николаевский, мюзикл, мелодрама, комедия, 1968) [DVDRip, Не ...
  • Морозко // Королевство кривых зеркал // Финист – Ясный сокол (Александр Роу ...
  • Соловей (Надежда Кошеверова, мюзикл, семейный, 1979) [DVDRip, Не требуется] ...
  • Светлая личность (Александр Павловский, мюзикл, комедия, 1989) [DVDRip, Не ...
  • Шельменко-денщик (Андрей Тутышкин, мюзикл, комедия, 1971) [DVDRip, Не требу ...
  • Собака на сене (Реставрирован) (Ян Фрид, мюзикл, комедия, 1977) [DVDRip, Не ...
  • Крепостная актриса (Роман Тихомиров, мелодрама, музыкальный фильм, 1963) DV ...
  • Донская повесть (Владимир Фетин, драма, 1964) [DVDRip, Не требуется]
  • Информация
    Посетители, находящиеся в группе Гости, не могут оставлять комментарии к данной публикации.