вход на сайт

Имя пользователя :
Пароль :

Восстановление пароля Регистрация
Черная чайка (Григорий Колтунов, приключения, 1962) [DVDRip, Не требуется]
Рейтинг:
(голосов: 1)



[img]{THEME}/images/logopost.png[/img]



Черная чайка

Год выпуска: 1962
Страна: СССР
Производство: Ленфильм
Жанр: приключения,

Режиссёр: Григорий Колтунов
В ролях: Анатолий Подшивалов, Эммануил Геллер, Игорь Дмитриев, Алексей Локтев, Сергей Юрский, Манана Абазадзе, Николай Волков, Анатолий Адоскин

Перевод: Не требуется
Субтитры: Отсутствуют

Описание:
Послереволюционная Куба. Рыбацкое поселение на берегу моря. Американцы все ещё пытаются вернуть прежний режим. В прибрежные воды засылаются диверсионные группы. Компания подростков и главный герой фильма, фантазер Маноло, включаются в эти недетские игры…


Дополнительно:
MediaInfo ▼Text
Общее
Полное имя :L:3.РаздачаЧерная чайкаchernaja_chajka.avi
Формат :AVI
Размер :1.42 GiB
Продолжительность :01:37:54.920
Общий поток :2 071 Kbps
Программа кодирования :VirtualDubMod 1.5.4.1 (build 2178/release)
Библиотека кодирования :VirtualDubMod build 2178/release

Видео
Идентификатор :0
Формат :MPEG-4 Visual
Профиль формата :Advanced [email protected]
Параметр BVOP формата :1
Параметр Qpel формата :No
Параметр GMC формата :0
Параметр Matrix формата :Custom
Идентификатор кодека :XVID
Продолжительность :1h 37mn 54s 920ms
Битрейт :1 872 Kbps
Ширина :720 pixels
Высота :544 pixels
Соотношение сторон :1.324
Частота кадров :25.000 fps
Глубина цвета :8 bits
Подвыборка цветности :4:2:0
Цветовое пространство :YUV
Тип развертки :Progressive
Бит/(Пиксели*Кадры) :0.191
Размер потока :1.28 GiB (90%)
Библиотека кодирования :XviD0050

Аудио #1
Идентификатор :1
Формат :AC-3
Формат/Информация :Audio Coding 3
Идентификатор кодека :2000
Продолжительность :01:37:54.848
Вид битрейта :Constant
Битрейт :192 Kbps
Канал(ы) :2 channels
Расположение каналов :Front: L R
Частота :48.0 KHz
Битовая глубина :16 bits
Метод сжатия :Lossy
Размер потока :134 MiB (9%)
Язык  
fa5297916f5011f48cc29cac2d66a990042329e4Черная чайка (Григорий Колтунов, приключения, 1962) [DVDRip, Не требуется] Черная чайка (Григорий Колтунов, приключения, 1962) [DVDRip, Не требуется] " />

Аплоадер: Админ, дата: 10-12-2012, 18:49, торрент скачан: 359 раз

Понравилась раздача? Посмотрите эти:
  • О чем шумит река (Григорий Мелик-Авакян, драма, 1959) [DVDRip, Не требуется ...
  • Каштанка (Роман Балаян, приключения, 1975) [DVDRip, Не требуется]
  • Зеленые цепочки (Григорий Аронов, приключения, 1970) [DVDRip, Не требуется] ...
  • Два гусара (Вячеслав Криштофович, мелодрама, 1984) [DVDRip, Не требуется]
  • Ход конем (Татьяна Лукашевич, комедия, 1962) [DVDRip, Не требуется]
  • Старшина (Николай Кошелев, драма, 1979) [DVDRip, Не требуется]
  • Путевка в Жизнь (Николай Экк, драма, 1931) [DVDRip, Не требуется]
  • Ой, вы, гуси... (Лидия Боброва, Драма, 1991) [DVDRip, Не требуется]
  • Левша (Сергей Овчаров, драма, комедия, 1986) [DVDRip, Не требуется]
  • Князь Игорь (Роман Тихомиров, мюзикл, приключения, 1969) [DVDRip, Не требуе ...
  • Печёнка (Арман Манарян, короткометражка, комедия, 1962) [DVDRip, Не требует ...
  • Порожний рейс (Владимир Венгеров, драма, 1962) [DVDRip, Не требуется]
  • Чайка (Юлий Карасик, драма, 1972) [DVDRip, Не требуется]
  • Небывальщина (Сергей Овчаров, комедия, 1983) [DVDRip, Не требуется]
  • Я, бабушка, Илико и Илларион (Тенгиз Абуладзе, мелодрама, комедия, 1962) [D ...
  • Танкер «Дербент» (Александр Файнциммер, приключения, 1940) [DVDRip, Не треб ...
  • Спортлото-82 (Леонид Гайдай, комедия, приключения, 1982) [DVDRip, Не требуе ...
  • Славный малый (Борис Барнет, военный, 1943) [DVDRip, Не требуется]
  • Приключения маленького папы (Дмитрий Крупко, детский, комедия, 1979) [DVDRi ...
  • Хозяйка гостиницы (Михаил Названов, комедия, 1956) [DVDRip, Не требуется]
  • Чудак-человек (Владимир Кочетов, комедия, 1962) [DVDRip, Не требуется]
  • Золотая речка (Вениамин Дорман, приключения, 1977) [DVDRip, Не требуется]
  • Дом на дюнах (Дмитрий Салынский, приключения, 1984) [DVDRip, Не требуется]
  • Максимка (Владимир Браун, приключения, 1953) [DVDRip, Не требуется]
  • Карьера Димы Горина (Фрунзе Довлатян, Лев Мирский, комедия, 1962) [DVDRip, ...
  • Информация
    Посетители, находящиеся в группе Гости, не могут оставлять комментарии к данной публикации.