вход на сайт

Имя пользователя :
Пароль :

Восстановление пароля Регистрация
Эти разные, разные, разные лица (Игорь Ильинский, Юрий Сааков, комедия, приключения, 1971) [DVDRip, Не требуется]
Рейтинг:
(голосов: 1)



[img]{THEME}/images/logopost.png[/img]



Эти разные, разные, разные лица

Год выпуска: 1971
Страна: СССР
Производство: ТО Экран
Жанр: комедия, приключения

Режиссёр: Игорь Ильинский, Юрий Сааков
В ролях: Игорь Ильинский

Перевод: Не требуется
Субтитры: Отсутствуют

Описание:
Игорь Ильинский читает рассказы Антона Павловича Чехова «Смерть чиновника», «Пересолил», «Оратор», «Ночь перед судом», «Дочь Альбиона», «Сапоги», «Хамелеон», перевоплощаясь «по ходу дела» в самых разнообразных персонажей. И это неудивительно, ибо все роли в этом фильме исполняет он сам.


Дополнительно:
MediaInfo ▼Text
Общее
Полное имя :D:. РАЗДАЧАЭти разные, разные, разные лицаЭти разные, разные, разные лица.avi.avi
Формат :AVI
Размер :1.33 GiB
Продолжительность :01:11:00.958
Общий поток :2 680 Kbps
Программа кодирования :XviD4PSP 6.0 / 53.6.0

Видео
Идентификатор :0
Формат :MPEG-4 Visual
Профиль формата :Advanced [email protected]
Параметр BVOP формата :3
Параметр Qpel формата :No
Параметр GMC формата :0
Параметр Matrix формата :Default (H.263)
Идентификатор кодека :DX50
Продолжительность :1h 11mn 0s 958ms
Битрейт :2 345 Kbps
Ширина :720 pixels
Высота :544 pixels
Соотношение сторон :1.313
Частота кадров :24.000 fps
Глубина цвета :8 bits
Подвыборка цветности :4:2:0
Цветовое пространство :YUV
Тип развертки :Progressive
Бит/(Пиксели*Кадры) :0.250
Размер потока :1.16 GiB (88%)
Библиотека кодирования :XviD0064

Аудио #1
Идентификатор :1
Формат :MPEG Audio
Идентификатор кодека :55
Продолжительность :00:16:54.384
Вид битрейта :Constant
Битрейт :320 Kbps
Канал(ы) :2 channels
Частота :48.0 KHz
Метод сжатия :Lossy
Размер потока :38.7 MiB (3%)Тех. данные:
Качество:DVDRip
Продолжительность:01:11:08 час

Формат: AVI
Видео кодек: XviD
Аудио кодек: MPA1L3
Видео: 720 x 544 (4:3), 24.000 fps, 2 345 Kbps, 0.250 bit/pixel
Аудио : 48.0 KHz, , 2 channels (), 320 Kbps




d1772797b048ee4c7f8e7d8e4a80d3dfc6f7fb1cЭти разные, разные, разные лица (Игорь Ильинский, Юрий Сааков, комедия, приключения, 1971) [DVDRip, Не требуется] Эти разные, разные, разные лица (Игорь Ильинский, Юрий Сааков, комедия, приключения, 1971) [DVDRip, Не требуется] " />

Аплоадер: Админ, дата: 10-12-2012, 18:33, торрент скачан: 359 раз

Понравилась раздача? Посмотрите эти:
  • Сквоз ft. Док / Разные [2013, Rap,Hip-Hop, WebRip]
  • (2013) MainstreaM One / Разные (при уч. Фиска Адвайта) (Rap,Vocal House) [М ...
  • РАЗНЫЕ СЛАДОСТИ - ОБОИ ДЛЯ РАБОЧЕГО СТОЛА [Jpg- от 1024x768 до 2560x1600-35 ...
  • Новогодние приключения Маши и Вити (Геннадий Казанский, Игорь Усов, фэнтези ...
  • Миллионы Ферфакса (Николай Ильинский, криминал, детектив, 1980) [DVDRip, Не ...
  • Князь Игорь (Роман Тихомиров, мюзикл, приключения, 1969) [DVDRip, Не требуе ...
  • Такие разные близнецы / Jack and Jill (Деннис Дуган, Комедия, 2011) [HDRip ...
  • Разные судьбы (Леонид Луков, мелодрама, 1957) [DVDRip, Не требуется]
  • Такие разные близнецы / Jack and Jill (Деннис Дуган, комедия, 2011) [BDRip ...
  • Такие разные близнецы / Jack and Jill (Деннис Дуган, комедия, 2011) [BDRip ...
  • [Шаблоны] Рамки (разные) [PSD]
  • Красивые обои на рабочий стол на самые разные темы (JPEG | 1280х960 - 2560х ...
  • Шельменко-денщик (Андрей Тутышкин, мюзикл, комедия, 1971) [DVDRip, Не требу ...
  • Гусарская баллада (Эльдар Рязанов, Лариса Голубкина, Юрий Яковлев, Игорь Ил ...
  • Эта веселая планета (Юрий Сааков, Юрий Цветков, Комедия, мюзикл, 1973) [DVD ...
  • [Шаблоны] Рамки (разные) [PSD, PNG]
  • ДДТ, КиШ, Кукрыниксы, Пилот, Разные Люди / Попса [2003, Rock, DVDRip]
  • [Шаблоны] Рамки (разные) [PSD, PNG]
  • [Кисти] Кисти для Фотошопа (разные) [ABR]
  • Демотиваторы разные / JPEG/ 470x488-800x732 / 237шт.
  • [Шаблоны] Рамки: Разные красивые [psd]
  • Разные обои / Разные обои / JPEG /1600х1200-2560х1600 / 200шт.]
  • [iPhone, iPod]Такие разные близнецы / Jack and Jill (Деннис Дуган, комедия) ...
  • Quest Pistols / Разные [2012, House, WebRip]
  • Шумный день (Анатолий Эфрос, Георгий Натансон, мелодрама, комедия, 1960) [D ...
  • Информация
    Посетители, находящиеся в группе Гости, не могут оставлять комментарии к данной публикации.