вход на сайт

Имя пользователя :
Пароль :

Восстановление пароля Регистрация
Морской волк (4 части из 4) (Игорь Апасян, драма, мелодрама, приключения, 1967) [DVDRip, Не требуется]
Рейтинг:
(голосов: 1)



[img]{THEME}/images/logopost.png[/img]



Морской волк (4 части из 4)

Год выпуска: 1967
Страна: Россия
Производство: Одиссей, Союзтелефильм
Жанр: драма, мелодрама, приключения

Режиссёр: Игорь Апасян
В ролях: Андрей Руденский, Елена Финогеева, Любомирас Лауцявичюс, Николай Чиндяйкин, Ж. Камали, Виктор Гайнов, Рудольф Мухин, Анатолий Сливников, Виктор Павловский, Алексей Серебряков

Перевод: Не требуется
Субтитры: Отсутствуют

Описание:
Попробуйте поставить себя на место главного героя, попавшего волей случая на промысловую шхуну, пережившего и победившего множество трудностей и унижений в борьбе с морем и непредсказуемым характером ее капитана, по праву носящего прозвище — Волк Ларсен, и Вы надолго оставите эти видеокассеты в своей коллекции.


Дополнительно:
MediaInfo ▼Text
"1 часть" ▼Общее
Полное имя :K:2. РАЗДАЧАМорской волк.1990Morskoi volk.1991Morskoi_volk_1991_part1.avi
Формат :AVI
Размер :991 MiB
Продолжительность :01:30:32.040
Общий поток :1 530 Kbps

Видео
Идентификатор :0
Формат :MPEG-4 Visual
Профиль формата :Advanced [email protected]
Параметр BVOP формата :2
Параметр Qpel формата :No
Параметр GMC формата :0
Параметр Matrix формата :Default (H.263)
Идентификатор кодека :XVID
Продолжительность :1h 30mn 32s 40ms
Битрейт :1 393 Kbps
Ширина :684 pixels
Высота :528 pixels
Соотношение сторон :1.295
Частота кадров :25.000 fps
Глубина цвета :8 bits
Подвыборка цветности :4:2:0
Цветовое пространство :YUV
Тип развертки :Progressive
Бит/(Пиксели*Кадры) :0.154
Размер потока :902 MiB (91%)
Библиотека кодирования :XviD0050

Аудио #1
Идентификатор :1
Формат :MPEG Audio
Идентификатор кодека :55
Продолжительность :01:30:31.986
Вид битрейта :Constant
Битрейт :128 Kbps
Канал(ы) :2 channels
Частота :48.0 KHz
Метод сжатия :Lossy
Размер потока :82.9 MiB (8%)

"2 часть" ▼Общее
Полное имя :K:2. РАЗДАЧАМорской волк.1990Morskoi volk.1991Morskoi_volk_1991_part2.avi
Формат &nbs
a98ef3a075465cac1253d5d60559049e7edd786cМорской волк (4 части из 4) (Игорь Апасян, драма, мелодрама, приключения, 1967) [DVDRip, Не требуется] Морской волк (4 части из 4) (Игорь Апасян, драма, мелодрама, приключения, 1967) [DVDRip, Не требуется] " />

Аплоадер: Админ, дата: 7-12-2012, 17:50, торрент скачан: 359 раз

Понравилась раздача? Посмотрите эти:
  • Дни хирурга Мишкина (3 части из 3) (Вадим Зобин, драма, 1967) [DVDRip, Не т ...
  • Анна Каренина (2 части из 2) (Александр Зархи, драма, мелодрама, 1967) [DVD ...
  • Отпуск за свой счет (2 части из 2) (Виктор Титов, мелодрама, комедия, 1981) ...
  • Люди и манекены (4 части из 4) (Виктор Храмов, Аркадий Райкин, комедия, 197 ...
  • Дон Сезар де Базан (2 части из 2) (Ян Фрид, мюзикл, комедия, 1989) [DVDRip, ...
  • Покровские ворота (2 части из 2) (Михаил Козаков, мюзикл, драма, мелодрама, ...
  • Вся королевская рать (3 части из 3) (Наум Ардашников, Александр Гуткович, д ...
  • Жили-были старик со старухой (2 части из 2) (Григорий Чухрай, драма, 1964) ...
  • Звезда пленительного счастья (2 части из 2) (Владимир Мотыль, драма, мелодр ...
  • Операция «Трест» (4 части из 4) (Сергей Колосов, приключения, история, 1967 ...
  • Объяснение в любви (2 части из 2) (Илья Авербах, мелодрама, 1977) [DVDRip, ...
  • Повесть о человеческом сердце (3 части из 3) (Даниил Храбровицкий, мелодрам ...
  • Морской волк (2 части из 2) / Der Seewolf (Кристоф Шреве, Драма, приключени ...
  • Взятки гладки (2 части из 2) (Игорь Масленников, Комедия, 2008) [DVDRip, Не ...
  • Степь (2 части из 2) (Сергей Бондарчук, драма, история, 1977) [DVDRip, Не т ...
  • Слушать в отсеках (2 части из 2) (Николай Засеев-Руденко, приключения, 1985 ...
  • У меня есть лев (2 части из 2) (Константин Бромберг, драма, комедия, приклю ...
  • Председатель (2 части из 2) (Алексей Салтыков, драма, 1964) [DVDRip, Не тре ...
  • Тихий Дон (3 части из 3) (Сергей Герасимов, драма, военный, 1957) [DVDRip, ...
  • Подпольный обком действует (4 части из 4) (Анатолий Буковский, военный, 197 ...
  • В лесах под Ковелем (3 части из 3) (Юрий Тупицкий, военный, история, 1984) ...
  • Гений (2 части из 2) (Виктор Сергеев, Комедия, криминал, 1991) [DVDRip, Не ...
  • Дядюшкин сон (2 части из2) (Александр Орлов, драма, комедия, 1981) [DVDRip, ...
  • Моонзунд (2 части из 2) (Александр Муратов, драма, мелодрама, военный, исто ...
  • Неизвестный солдат (3 части из 3) (Григорий Аронов, Вадим Зобин, драма, 198 ...
  • Информация
    Посетители, находящиеся в группе Гости, не могут оставлять комментарии к данной публикации.