вход на сайт

Имя пользователя :
Пароль :

Восстановление пароля Регистрация
Государственная граница / 8 фильмов [16 серий из 16] (Борис Степанов, Вячеслав Никифоров, Геннадий Иванов, драма, военный, история, приключения, 1980-1988) [DVDRip-AVC, не требуется]
Рейтинг:
(голосов: 1)



[img]{THEME}/images/logopost.png[/img]



«Государственная граница»

Информация о фильме
Год выпуска: 1980-1988
Страна: СССР
Производство: Беларусьфильм
Жанр: драма, военный, история, приключения

Режиссёр: Борис Степанов, Вячеслав Никифоров, Геннадий Иванов
В ролях: Юрий Каюров, Августин Милованов, Игорь Старыгин, Александр Денисов, Эрнст Романов, Марина Дюжева, Вия Артмане, Виктор Тарасов, Аристарх Ливанов, Павел Винник, рий Каюров, Александр Денисов, Анна Каменкова, Владимир Новиков, Юрий Катин-Ярцев, Олег Ефремов, Владимир Самойлов, Евгений Леонов-Гладышев, Марина Левтова, Андрей Смоляков, Вера Сотникова, Витаутас Томкус, Улдис Ваздикс, Андрей Алешин, Наталья Лапина, Сергей Мартынов и др...

Перевод: не требуется
Субтитры: нет

Описание
«Государственная граница» — историко-приключенческий телевизионный сериал, снятый на киностудии «Беларусьфильм» в 1980—1988 годах и рассказывающий о службе советских пограничников. Действие происходит в период с 1917 года по конец 1980-х и разворачивается на территории СССР от Дальнего Востока до западных границ.

Государственная граница: Мы наш, мы новый... ▼

«Государственная граница: Мы наш, мы новый...»

Информация о фильме
Год выпуска: 1980
Страна: СССР
Производство: Беларусьфильм
Жанр: драма, военный, история, приключения

Режиссёр: Борис Степанов
В ролях: Юрий Каюров, Августин Милованов, Игорь Старыгин, Александр Денисов, Эрнст Романов, Марина Дюжева, Вия Артмане, Виктор Тарасов, Аристарх Ливанов, Павел Винник

Перевод: не требуется
Субтитры: нет

Описание
Действие фильма происходит в 1917 году. В молодой республике Советов принимается декрет о границах и создании пограничной службы. Фильм рассказывает о борьбе первых советских пограничников с незаконным вывозом ценностей.


IMDB: рейтинг6.30 (27)
КиноПоиск: рейтинг7.994 (426)

Тех.Данные
Качество: DVDRip-AVC
Продолжительность: ~ 01:05:33 x 01:06:04 часа

Формат: Matroska-MKV-
Видео кодек: AVC [email protected]
Аудио кодек: Audio Coding 3
Видео: 704x528 (4:3), 25 fps, AVC ~2054 kbps avg, 0.221 bit/pixel
Аудио: 48.00 kHz, AC3 Dolby Digital, 3/2 (L,C,R,l,r) + LFE ch, ~320 kbps

MediaInfo ▼TextФормат : Matroska
Версия формата : Version 2
Размер файла : 1,11 Гбайт
Продолжительность : 1 ч. 5 м.
Общий поток : 2423 Кбит/сек
Дата кодирования : UTC 2011-10-08 06:52:04
Программа кодирования : mkvmerge v3.4.0 (Rapunzel) сборка от May 15 2010 09:38:20
Библиотека кодирования : libebml v0.8.0 + libmatroska v0.9.0

Видео
Идентификатор : 1
Формат : AVC
Формат/Информация : Advanced Video Codec
Профиль формата : [email protected]
Параметр CABAC формата : Да
Параметр ReFrames формата : 6 кадров
Параметр GOP формата : N=1
Идентификатор кодека : V_MPEG4/ISO/AVC
Продолжительность : 1 ч. 5 м.
Битрейт : 2054 Кбит/сек
Ширина : 704 пикселя
Высота : 528 пикселей
Соотношение сторон : 4:3
Частота кадров : 25,000 кадров/сек
Цветовое пространство : YUV
Субдискретизация насыщенности : 4:2:0
Битовая глубина : 8 бит
Тип развёртки : Прогрессивная
Бит/(Пиксели*Кадры) : 0.221
Размер потока : 963 Мбайт (85%)
Default : Да
Forced : Нет

Аудио
Идентификатор : 2
Формат : AC-3
Формат/Информация : Audio Coding 3
Расширение режима : CM (complete main)
Идентификатор кодека : A_AC3
Продолжительность : 1 ч. 5 м.
Вид битрейта : Постоянный
Битрейт : 320 Кбит/сек
Каналы : 6 каналов
Расположение каналов : Front: L C R, Side: L R, LFE
Частота : 48,0 КГц
Битовая глубина : 16 бит
Метод сжатия : С потерями
Задержка видео : 8 мс.
Размер потока : 150 Мбайт (13%)
Заголовок : AC3 5.1 - 320 kbps
Язык : Russian
Default : Нет
Forced : Нет

"Скриншот" ▼Государственная граница. Фильм 2. Мирное лето 21-го года ▼

«Государственная граница. Фильм 2. Мирное лето 21-го года»

Информация о фильме
Год выпуска: 1980
Страна: СССР
Производство: Беларусьфильм
Жанр: драма, военный, и
2e58521f4e6e79f2f8bacdf6e015457fa4b0a48eГосударственная граница / 8 фильмов [16 серий из 16] (Борис Степанов, Вячеслав Никифоров, Геннадий Иванов, драма, военный, история, приключения, 1980-1988) [DVDRip-AVC, не требуется] Государственная граница / 8 фильмов [16 серий из 16] (Борис Степанов, Вячеслав Никифоров, Геннадий Иванов, драма, военный, история, приключения, 1980-1988) [DVDRip-AVC, не требуется] " />

Аплоадер: Админ, дата: 3-12-2012, 12:57, торрент скачан: 359 раз

Понравилась раздача? Посмотрите эти:
  • Интимные места (Наталья Меркулова, Алексей Чупов, драма, мелодрама, 2013) [ ...
  • Они сражались за Родину (полная версия) (Сергей Бондарчук, драма, военный, ...
  • А зори здесь тихие... // Эпизоды с 1 по 12 (из 12) (Боевик, драма, военный ...
  • Кавказский пленник (Сергей Бодров, драма, военный, 1996) [DVDRip-AVC, не тр ...
  • Эскадрилья "Лафайет" / Flyboys (Тони Билл, Боевик, драма, мелодрама, приклю ...
  • "Мерседес" уходит от погони (Юрий Ляшенко, военный, 1980) [DVDRip, Не требу ...
  • Зимородок (Вячеслав Никифоров, военный, 1972) [DVDRip, Не требуется]
  • Жди меня (Борис Иванов, Александр Столпер, драма, военный, 1972) [DVDRip, Н ...
  • Полонез Огинского (Лев Голуб, драма, военный, 1971) [DVDRip, Не требуется]
  • Парень из нашего города (Александр Столпер, Борис Иванов, драма, военный, 1 ...
  • Оптимистическая трагедия (Самсон Самсонов, драма, военный, история, 1963) [ ...
  • На пути в Берлин (Михаил Ершов, военный, 1969) [DVDRip-AVC, Не требуется]
  • Михайло Ломоносов (Александр Иванов, драма, история, 1955) [DVDRip, Не треб ...
  • Мертвое поле (Александр Аравин, Драма, военный, 2006) [DVDRip-AVC, Оригинал ...
  • Лес (Владимир Мотыль, драма, 1980) [DVDRip, Не требуется]
  • Повесть о «Неистовом» (Борис Бабочкин, драма, военный, 1947) [DVDRip, Перев ...
  • Эскадрон гусар летучих (Никита Хубов, Станислав Ростоцкий, военный, 1980) [ ...
  • Котенок с улицы Лизюкова (Вячеслав Котеночкин, Мультфильм, 1988) [DVDRip-AV ...
  • МУР // Эпизоды с 1 по 20 (из 20) (криминал, военный, 2012) [DVDRip-AVC, Не ...
  • Сотрудник ЧК (Борис Волчек, боевик, история, 1963) [DVDRip, Не требуется]
  • Холодное лето пятьдесят третьего (Александр Прошкин, боевик, драма, кримина ...
  • Славный малый (Борис Барнет, военный, 1943) [DVDRip, Не требуется]
  • Судьба человека (Сергей Бондарчук, драма, военный, биография, 1959) [DVDRip ...
  • Государственная граница (Борис Степанов, Драма, военный, история, 1980-88 ...
  • Моонзунд (2 части из 2) (Александр Муратов, драма, мелодрама, военный, исто ...
  • Информация
    Посетители, находящиеся в группе Гости, не могут оставлять комментарии к данной публикации.