вход на сайт

Имя пользователя :
Пароль :

Восстановление пароля Регистрация
Приключения Шерлока Холмса и доктора Ватсона [Издание TWISTER] (Игорь Масленников, криминал, детектив, 1979 -1986) [DVDRip-AVC, не требуется]
Рейтинг:
(голосов: 1)



[img]{THEME}/images/logopost.png[/img]



«Приключения Шерлока Холмса и доктора Ватсона»

Информация о фильме
Год выпуска: 1979-1986
Страна: СССР
Производство: Ленфильм
Жанр: криминал, детектив

Режиссёр: Игорь Масленников / Igor Maslennikov
В ролях: Василий Ливанов, Виталий Соломин, Рина Зеленая, Мария Соломина, Геннадий Богачёв, Федор Одиноков, Кэтрин Шелл и др...

Перевод: не требуется
Субтитры: нет

Описание
Классическая экранизация цикла рассказов о гениальном сыщике Шерлоке Холмсе и его друге докторе Ватсоне, которые предотвращают коварные замыслы и разоблачают жестоких преступников.

Шерлок Холмс и доктор Ватсон: Знакомство ▼

«Шерлок Холмс и доктор Ватсон: Знакомство »

Информация о фильме
Год выпуска: 1979
Страна: СССР
Производство: Ленфильм
Жанр: криминал, детектив

Режиссёр: Игорь Масленников / Igor Maslennikov
В ролях: Василий Ливанов, Виталий Соломин, Рина Зеленая, Мария Соломина, Геннадий Богачёв, Федор Одиноков, Кэтрин Шелл

Перевод: не требуется
Субтитры: нет

Описание
Молодой доктор по фамилии Ватсон возвратился из Афганистана в родной туманный Лондон. Ему нужно недорогое жилье. И вот, по совету друга, он поселяется в маленьком домике на Бейкер-стрит. Его хозяйка — милая чудаковатая старушка миссис Хадсон. Также там имеется сосед — некий мистер Шерлок Холмс. Это непонятная и таинственная личность — к нему в гости приходят оборванцы и бандиты, а иногда полицейские и лорды. Кто же он? Доктор в растерянности…




Тех.Данные
Качество: DVDRip-AVC
Продолжительность: ~ 01:07:36 часа

Формат: Matroska-MKV-
Видео кодек: AVC [email protected]
Аудио кодек: Audio Coding 3
Видео: 716x572 (4:3), 25 fps, AVC ~1646 kbps avg, 0.161 bit/pixel
Аудио: 48.00 kHz, AC3 Dolby Digital, 3/2 (L,C,R,l,r) + LFE ch, ~384 kbps

MediaInfo ▼TextФормат : Matroska
Версия формата : Version 2
Размер файла : 1001 Мбайт
Продолжительность : 1 ч. 7 м.
Общий поток : 2071 Кбит/сек
Дата кодирования : UTC 2012-10-15 07:40:34
Программа кодирования : mkvmerge v5.8.0 (No Sleep / Pillow) built on Sep 2 2012 15:37:04
Библиотека кодирования : libebml v1.2.3 + libmatroska v1.3.0

Видео
Идентификатор : 1
Формат : AVC
Формат/Информация : Advanced Video Codec
Профиль формата : [email protected]
Параметр CABAC формата : Да
Параметр ReFrames формата : 13 кадров
Идентификатор кодека : V_MPEG4/ISO/AVC
Продолжительность : 1 ч. 7 м.
Битрейт : 1646 Кбит/сек
Ширина : 716 пикселей
Высота : 572 пикселя
Соотношение сторон : 4:3
Частота кадров : 25,000 кадров/сек
Цветовое пространство : YUV
Субдискретизация насыщенности : 4:2:0
Битовая глубина : 8 бит
Тип развёртки : Прогрессивная
Бит/(Пиксели*Кадры) : 0.161
Размер потока : 796 Мбайт (79%)
Библиотека кодирования : x264 core 67 r1173M f6d3166
Настройки программы : cabac=1 / ref=13 / deblock=1:-3:0 / analyse=0x3:0x113 / me=umh / subme=9 / psy_rd=0.9:0.6 / mixed_ref=1 / me_range=24 / chroma_me=1 / trellis=2 / 8x8dct=1 / cqm=0 / deadzone=21,11 / chroma_qp_offset=-4 / threads=6 / nr=0 / decimate=1 / mbaff=0 / bframes=6 / b_pyramid=1 / b_adapt=2 / b_bias=0 / direct=1 / wpredb=1 / keyint=250 / keyint_min=25 / scenecut=45 / rc=crf / crf=20.5 / qcomp=0.60 / qpmin=10 / qpmax=51 / qpstep=4 / ip_ratio=1.40 / pb_ratio=1.30 / aq=1:1.00
Язык : Russian
Default : Да
Forced : Нет
Коэффициенты матрицы : BT.470-6 System B, BT.470-6 System G, BT.601-6 625, BT.1358 625, BT.1700 625 PAL, BT.1700 625 SECAM, IEC 61966-2-4 601

Аудио
Идентификатор : 2
Формат : AC-3
Формат/Информация : Audio Coding 3
Расширение режима : CM (complete main)
Идентификатор кодека : A_AC3
Продолжительность : 1 ч. 7 м.
Вид битрейта : Постоянный
Битрейт : 384 Кбит/сек
Каналы : 6 каналов
Расположение каналов : Front: L C R, Side: L R, LFE
Частота : 48,0 КГц
Битовая глубина : 16 бит
Метод сжатия : С потерями
Размер потока : 186 Мбайт (19%)
Язык : Russian
Default : Да
Forced : Нет

"Скриншот" ▼Шерлок Холмс и доктор Ватсон: Кров
01e2694c838f4911969fe7de65fe65fbb1da782aПриключения Шерлока Холмса и доктора Ватсона [Издание TWISTER] (Игорь Масленников, криминал, детектив, 1979 -1986) [DVDRip-AVC, не требуется] Приключения Шерлока Холмса и доктора Ватсона [Издание TWISTER] (Игорь Масленников, криминал, детектив, 1979 -1986) [DVDRip-AVC, не требуется] " />

Аплоадер: Админ, дата: 22-10-2012, 13:18, торрент скачан: 359 раз

Понравилась раздача? Посмотрите эти:
  • Шерлок Холмс и доктор Ватсон: Собака Баскервилей (Игорь Масленников, кримин ...
  • Интерны // Эпизод 181. Новогодний выпуск (Комедия, 2013) [WEB-DL 720p, Не т ...
  • Шерлок Холмс и доктор Ватсон: Собака Баскервилей (Игорь Масленников, кримин ...
  • Приключения Шерлока Холмса и доктора Ватсона: Собака Баскервилей (2 серии) ...
  • Иллюзия обмана / Now You See Me [Extended Cut] (Луи Летерье, триллер, крими ...
  • Гараж (Эльдар Рязанов, драма, комедия, 1979) [DVDRip-AVC, Оригинал (русский ...
  • Перелом / Fracture (Грегори Хоблит, Триллер, драма, криминал, детектив, 200 ...
  • Шерлок Холмс и доктор Ватсон: Знакомство / Кровавая надпись / Король шантаж ...
  • Шерлок Холмс и доктор Ватсон: Охота на тигра / Смертельная схватка / Собака ...
  • Шерлок Холмс и доктор Ватсон: Сокровища Агры (2 части из 2) / Двадцатый век ...
  • Чемпионат Англии 2012-2013 / 25-й тур / Обзор / Суббота / BBC Sport [2013 г ...
  • Приключения Шерлока Холмса и доктора Ватсона/Весь сериал/DVDRip
  • Котенок с улицы Лизюкова (Вячеслав Котеночкин, Мультфильм, 1988) [DVDRip-AV ...
  • Белка: Не время для орехов / Scrat: No Time for Nuts (Крис Рено, Майк Труме ...
  • МУР // Эпизоды с 1 по 20 (из 20) (криминал, военный, 2012) [DVDRip-AVC, Не ...
  • [OST] Владимир Дашкевич. Приключения Шерлока Холмса и доктора Ватсона (200 ...
  • Приключения Шерлока Холмса и доктора Ватсона// № 1, эпизод 1-5 (5) (Игор ...
  • Весь Шерлок Холмс (Игорь Масленников, иронический детектив, 1979-1986) [5хD ...
  • Золотая коллекция - весь Шерлок Холмс (Игорь Масленников, детектив, 1979-19 ...
  • Золотая коллекция: Весь Шерлок Холмс (Игорь Масленников, детектив, 1979-19 ...
  • Информация
    Посетители, находящиеся в группе Гости, не могут оставлять комментарии к данной публикации.