вход на сайт

Имя пользователя :
Пароль :

Восстановление пароля Регистрация
Неподдающиеся (Юрий Чулюкин, комедия, 1959) [DVDRip-AVC, не требуется]
Рейтинг:
(голосов: 1)



[img]{THEME}/images/logopost.png[/img]



«Неподдающиеся»

Информация о фильме
» Год выпуска: 1959
» Страна: СССР
» Производство: Мосфильм
» Жанр: комедия

» Режиссёр: Юрий Чулюкин / Yuri Chulyukin
» В ролях: Надежда Румянцева, Юрий Белов, Алексей Кожевников, В. Козлов, Светлана Харитонова, Юрий Никулин, Владимир Земляникин, Вера Карпова, В. Егоров, Константин Нассонов, Иван Каширин, Сергей Филиппов, Лилия Гриценко, Нина Агапова

» Перевод: не требуется
» Субтитры: нет

Описание
Есть на заводе два паренька, два друга, из-за которых показатели молодёжной бригады вечно страдают. Уже было твёрдо решено уволить Анатолия Грачкина и его дружка Виктора Громобоева, как ребят взяла на поруки Надя Берестова, маленькая смешная девчонка, общая любимица. На собрании она пожалела друзей, а комсомольцы, не растерявшись, сразу «записали» ей поручение.

Поначалу Надя взялась за него с неохотой и опаской, но постепенно это поручение становится самым главным в жизни. Девушка настолько втягивается в дело перевоспитания, что ради своих подшефных забывает собственные привязанности.




Тех.Данные
» Качество: DVDRip-AVC
» Продолжительность: ~ 01:15:30 часа

» Формат: Matroska-MKV-
» Видео кодек: AVC [email protected]
» Аудио кодек: Audio Coding 3
» Видео: 720x544 (4:3), 25 fps, AVC ~1750 kbps avg, 0.179 bit/pixel
» Аудио: 48.00 kHz, AC3 Dolby Digital, 2/0 (L,R) ch, ~192.00 kbps

MediaInfo ▼TextGeneral
Unique ID : 246737954446146514590751392118814897168 (0xB9A000618C5C83218D824A39F0B57410)
Complete name : Неподдающиеся.mkv
Format : Matroska
Format version : Version 2
File size : 1.02 GiB
Duration : 1h 15mn
Overall bit rate : 1 936 Kbps
Movie name : Неподдающиеся (rip by smithland)
Encoded date : UTC 2012-08-24 07:10:16
Writing application : mkvmerge v5.7.0 (The Whirlwind)
Writing library : libebml v1.2.3 + libmatroska v1.3.0
Attachment : Yes

Video
ID : 1
Format : AVC
Format/Info : Advanced Video Codec
Format profile : [email protected]
Format settings, CABAC : Yes
Format settings, ReFrames : 6 frames
Codec ID : V_MPEG4/ISO/AVC
Duration : 1h 15mn
Bit rate : 1 750 Kbps
Width : 720 pixels
Height : 544 pixels
Display aspect ratio : 4:3
Frame rate mode : Variable
Frame rate : 25.000 fps
Color space : YUV
Chroma subsampling : 4:2:0
Bit depth : 8 bits
Scan type : Progressive
Bits/(Pixel*Frame) : 0.179
Stream size : 921 MiB (88%)
Writing library : x264 core 125 r2197
Encoding settings : cabac=1 / ref=6 / deblock=1:-2:0 / analyse=0x3:0x133 / me=esa / subme=9 / psy=1 / psy_rd=1.50:0.80 / mixed_ref=0 / me_range=20 / chroma_me=1 / trellis=1 / 8x8dct=1 / cqm=0 / deadzone=21,11 / fast_pskip=1 / chroma_qp_offset=-4 / threads=6 / lookahead_threads=1 / sliced_threads=0 / nr=0 / decimate=1 / interlaced=0 / bluray_compat=0 / constrained_intra=0 / bframes=3 / b_pyramid=2 / b_adapt=1 / b_bias=0 / direct=3 / weightb=1 / open_gop=1 / weightp=2 / keyint=250 / keyint_min=25 / scenecut=80 / intra_refresh=0 / rc_lookahead=40 / rc=abr / mbtree=1 / bitrate=1750 / ratetol=1.0 / qcomp=0.60 / qpmin=10 / qpmax=69 / qpstep=4 / vbv_maxrate=20000 / vbv_bufsize=20000 / nal_hrd=none / ip_ratio=1.40 / aq=1:1.00
Language : Russian
Default : Yes
Forced : Yes

Audio
ID : 2
Format : AC-3
Format/Info : Audio Coding 3
Mode extension : CM (complete main)
Format settings, Endianness : Big
Codec ID : A_AC3
Duration : 1h 15mn
Bit rate mode : Constant
Bit rate : 192 Kbps
Channel(s) : 2 channels
Channel positions : Front: L R
Sampling rate : 48.0 KHz
Bit depth : 16 bits
Compression mode : Lossy
Delay relative to video : 27ms
Stream size : 104 MiB (10%)
Language : Russian
Default : Yes
Forced : Yes

Menu
00:00:00.000 : :ëࢠ 01
00:05:00.000 : :ëࢠ 02
00:10:00.000 : :ëࢠ 03
00:15:00.000 : :ëࢠ 04
00:20:00.000 : :ëࢠ 05
00:25:00.000 : :ëࢠ 06
00:30:00.000 : :ëࢠ 07
00:35:00.000 : :ëࢠ 08
00:40:00.000 : :ëࢠ 09
00:45:00.000 : :ëࢠ 10
00:50:00.000 : :ëࢠ 11
00:55:00.000 : :ëࢠ 12
01:00:00.000 : :ëࢠ 13
01:05:00.000 : :ëࢠ 14
01:10:00.000 : :ëࢠ 15
01:1
7376fc8d65f0b274fd46b2fc104b378dbdc6280fНеподдающиеся (Юрий Чулюкин, комедия, 1959) [DVDRip-AVC, не требуется] Неподдающиеся (Юрий Чулюкин, комедия, 1959) [DVDRip-AVC, не требуется] " />

Аплоадер: Админ, дата: 25-09-2012, 10:57, торрент скачан: 359 раз

Понравилась раздача? Посмотрите эти:
  • FLO / NRG [2012, Pop, Dance, MasterRip]
  • Груз 200 (Алексей Балабанов, триллер, драма, 2007) [BDRip-AVC, Не требуется ...
  • Разговор (Сергей Комаров, Драма, 2012) [BDRip-AVC, Hе требуется]
  • UFC The Ultimate 100 Knockouts - PPV [MMA,2013, HDTVRip 720p]
  • Чемпионат Мира по хоккею 2013 / Четвертьфинал / Россия - США / 1 HD [Хокке ...
  • Бриллиантовая рука (Леонид Гайдай, комедия, криминал, приключения, 1968) [B ...
  • Девчата (Юрий Чулюкин, мелодрама, комедия, 1961) [BDRip 720p, Не требуется] ...
  • Девчата (Юрий Чулюкин, мелодрама, комедия, 1961) [BDRip 1080, Оригинал (не ...
  • Футбольный клуб / Чемпионат Европы 2012 / НТВ+ [Футбол, 08.06.2012, HDTVRip ...
  • Чемпионат Европы 2012 / 1/4 финала / Чехия - Португалия / Спорт 1 HD [Футбо ...
  • Чемпионат Европы 2012 / 1/2 финала / Португалия - Испания / Спорт 1 HD [Фу ...
  • Чемпионат Европы 2012 / 1/2 финала / Германия - Италия / Спорт 1 HD [Футбо ...
  • Все голы Евро-2012 [Футбол,2012, HDTVRip]
  • Товарищеский матч / США - Бразилия / ESPN [16.07.2012, Баскетбол, WEB-DLRip ...
  • Chelsea - Season Review 2011-12 / Челси - Обзор Сезона 2011-12 [ Футбол, 20 ...
  • Mylene Farmer / Du Temps [2011, Pop, HDTVRip]
  • Mylene Farmer / Bleu Noir [2011, Pop, HDTVRip]
  • Неподдающиеся (Юрий Чулюкин, комедия, 1959) [DVDRip, Не требуется]
  • Неподдающиеся (Юрий Чулюкин, Комедия, 1959 г) [DVDRip, оригинал]
  • Madonna / Girl Gone Wild [2012, Pop, HDTV]
  • Информация
    Посетители, находящиеся в группе Гости, не могут оставлять комментарии к данной публикации.